  0
SECTION
  2
HEADER
  9
$ACADVER
  1
AC1015
  9
$ACADMAINTVER
 70
     6
  9
$DWGCODEPAGE
  3
ANSI_1252
  9
$INSBASE
 10
0.0
 20
0.0
 30
0.0
  9
$EXTMIN
 10
-420.0000000000002
 20
0.0
 30
0.0
  9
$EXTMAX
 10
0.0
 20
594.0000000000002
 30
0.0
  9
$LIMMIN
 10
0.0
 20
0.0
  9
$LIMMAX
 10
12.0
 20
9.0
  9
$ORTHOMODE
 70
     0
  9
$REGENMODE
 70
     1
  9
$FILLMODE
 70
     1
  9
$QTEXTMODE
 70
     0
  9
$MIRRTEXT
 70
     1
  9
$LTSCALE
 40
1.0
  9
$ATTMODE
 70
     1
  9
$TEXTSIZE
 40
0.2
  9
$TRACEWID
 40
0.05
  9
$TEXTSTYLE
  7
Standard
  9
$CLAYER
  8
0
  9
$CELTYPE
  6
ByLayer
  9
$CECOLOR
 62
   256
  9
$CELTSCALE
 40
1.0
  9
$DISPSILH
 70
     0
  9
$DIMSCALE
 40
1.0
  9
$DIMASZ
 40
0.18
  9
$DIMEXO
 40
0.0625
  9
$DIMDLI
 40
0.38
  9
$DIMRND
 40
0.0
  9
$DIMDLE
 40
0.0
  9
$DIMEXE
 40
0.18
  9
$DIMTP
 40
0.0
  9
$DIMTM
 40
0.0
  9
$DIMTXT
 40
0.18
  9
$DIMCEN
 40
0.09
  9
$DIMTSZ
 40
0.0
  9
$DIMTOL
 70
     0
  9
$DIMLIM
 70
     0
  9
$DIMTIH
 70
     1
  9
$DIMTOH
 70
     1
  9
$DIMSE1
 70
     0
  9
$DIMSE2
 70
     0
  9
$DIMTAD
 70
     0
  9
$DIMZIN
 70
     0
  9
$DIMBLK
  1

  9
$DIMASO
 70
     1
  9
$DIMSHO
 70
     1
  9
$DIMPOST
  1

  9
$DIMAPOST
  1

  9
$DIMALT
 70
     0
  9
$DIMALTD
 70
     2
  9
$DIMALTF
 40
25.4
  9
$DIMLFAC
 40
1.0
  9
$DIMTOFL
 70
     0
  9
$DIMTVP
 40
0.0
  9
$DIMTIX
 70
     0
  9
$DIMSOXD
 70
     0
  9
$DIMSAH
 70
     0
  9
$DIMBLK1
  1

  9
$DIMBLK2
  1

  9
$DIMSTYLE
  2
Standard
  9
$DIMCLRD
 70
     0
  9
$DIMCLRE
 70
     0
  9
$DIMCLRT
 70
     0
  9
$DIMTFAC
 40
1.0
  9
$DIMGAP
 40
0.09
  9
$DIMJUST
 70
     0
  9
$DIMSD1
 70
     0
  9
$DIMSD2
 70
     0
  9
$DIMTOLJ
 70
     1
  9
$DIMTZIN
 70
     0
  9
$DIMALTZ
 70
     0
  9
$DIMALTTZ
 70
     0
  9
$DIMUPT
 70
     0
  9
$DIMDEC
 70
     4
  9
$DIMTDEC
 70
     4
  9
$DIMALTU
 70
     2
  9
$DIMALTTD
 70
     2
  9
$DIMTXSTY
  7
Standard
  9
$DIMAUNIT
 70
     0
  9
$DIMADEC
 70
     0
  9
$DIMALTRND
 40
0.0
  9
$DIMAZIN
 70
     0
  9
$DIMDSEP
 70
    46
  9
$DIMATFIT
 70
     3
  9
$DIMFRAC
 70
     0
  9
$DIMLDRBLK
  1

  9
$DIMLUNIT
 70
     2
  9
$DIMLWD
 70
    -2
  9
$DIMLWE
 70
    -2
  9
$DIMTMOVE
 70
     0
  9
$LUNITS
 70
     2
  9
$LUPREC
 70
     4
  9
$SKETCHINC
 40
0.1
  9
$FILLETRAD
 40
0.5
  9
$AUNITS
 70
     0
  9
$AUPREC
 70
     0
  9
$MENU
  1
.
  9
$ELEVATION
 40
0.0
  9
$PELEVATION
 40
0.0
  9
$THICKNESS
 40
0.0
  9
$LIMCHECK
 70
     0
  9
$CHAMFERA
 40
0.0
  9
$CHAMFERB
 40
0.0
  9
$CHAMFERC
 40
0.0
  9
$CHAMFERD
 40
0.0
  9
$SKPOLY
 70
     0
  9
$TDCREATE
 40
2457515.396669467
  9
$TDUCREATE
 40
2457515.313336134
  9
$TDUPDATE
 40
2457515.396669826
  9
$TDUUPDATE
 40
2457515.313336493
  9
$TDINDWG
 40
0.0000000116
  9
$TDUSRTIMER
 40
0.0000000116
  9
$USRTIMER
 70
     1
  9
$ANGBASE
 50
0.0
  9
$ANGDIR
 70
     0
  9
$PDMODE
 70
     0
  9
$PDSIZE
 40
0.0
  9
$PLINEWID
 40
0.0
  9
$SPLFRAME
 70
     0
  9
$SPLINETYPE
 70
     6
  9
$SPLINESEGS
 70
     8
  9
$HANDSEED
  5
216
  9
$SURFTAB1
 70
     6
  9
$SURFTAB2
 70
     6
  9
$SURFTYPE
 70
     6
  9
$SURFU
 70
     6
  9
$SURFV
 70
     6
  9
$UCSBASE
  2

  9
$UCSNAME
  2

  9
$UCSORG
 10
0.0
 20
0.0
 30
0.0
  9
$UCSXDIR
 10
1.0
 20
0.0
 30
0.0
  9
$UCSYDIR
 10
0.0
 20
1.0
 30
0.0
  9
$UCSORTHOREF
  2

  9
$UCSORTHOVIEW
 70
     0
  9
$UCSORGTOP
 10
0.0
 20
0.0
 30
0.0
  9
$UCSORGBOTTOM
 10
0.0
 20
0.0
 30
0.0
  9
$UCSORGLEFT
 10
0.0
 20
0.0
 30
0.0
  9
$UCSORGRIGHT
 10
0.0
 20
0.0
 30
0.0
  9
$UCSORGFRONT
 10
0.0
 20
0.0
 30
0.0
  9
$UCSORGBACK
 10
0.0
 20
0.0
 30
0.0
  9
$PUCSBASE
  2

  9
$PUCSNAME
  2

  9
$PUCSORG
 10
0.0
 20
0.0
 30
0.0
  9
$PUCSXDIR
 10
1.0
 20
0.0
 30
0.0
  9
$PUCSYDIR
 10
0.0
 20
1.0
 30
0.0
  9
$PUCSORTHOREF
  2

  9
$PUCSORTHOVIEW
 70
     0
  9
$PUCSORGTOP
 10
0.0
 20
0.0
 30
0.0
  9
$PUCSORGBOTTOM
 10
0.0
 20
0.0
 30
0.0
  9
$PUCSORGLEFT
 10
0.0
 20
0.0
 30
0.0
  9
$PUCSORGRIGHT
 10
0.0
 20
0.0
 30
0.0
  9
$PUCSORGFRONT
 10
0.0
 20
0.0
 30
0.0
  9
$PUCSORGBACK
 10
0.0
 20
0.0
 30
0.0
  9
$USERI1
 70
     0
  9
$USERI2
 70
     0
  9
$USERI3
 70
     0
  9
$USERI4
 70
     0
  9
$USERI5
 70
     0
  9
$USERR1
 40
19.0
  9
$USERR2
 40
0.0
  9
$USERR3
 40
0.0
  9
$USERR4
 40
0.0
  9
$USERR5
 40
0.0
  9
$WORLDVIEW
 70
     1
  9
$SHADEDGE
 70
     3
  9
$SHADEDIF
 70
    70
  9
$TILEMODE
 70
     1
  9
$MAXACTVP
 70
    64
  9
$PINSBASE
 10
0.0
 20
0.0
 30
0.0
  9
$PLIMCHECK
 70
     0
  9
$PEXTMIN
 10
1.00000000000000E+20
 20
1.00000000000000E+20
 30
1.00000000000000E+20
  9
$PEXTMAX
 10
-1.00000000000000E+20
 20
-1.00000000000000E+20
 30
-1.00000000000000E+20
  9
$PLIMMIN
 10
0.0
 20
0.0
  9
$PLIMMAX
 10
12.0
 20
9.0
  9
$UNITMODE
 70
     0
  9
$VISRETAIN
 70
     1
  9
$PLINEGEN
 70
     0
  9
$PSLTSCALE
 70
     1
  9
$TREEDEPTH
 70
  3020
  9
$CMLSTYLE
  2
Standard
  9
$CMLJUST
 70
     0
  9
$CMLSCALE
 40
1.0
  9
$PROXYGRAPHICS
 70
     1
  9
$MEASUREMENT
 70
     1
  9
$CELWEIGHT
370
    -1
  9
$ENDCAPS
280
     0
  9
$JOINSTYLE
280
     0
  9
$LWDISPLAY
290
     0
  9
$INSUNITS
 70
     4
  9
$HYPERLINKBASE
  1

  9
$STYLESHEET
  1

  9
$XEDIT
290
     1
  9
$CEPSNTYPE
380
     0
  9
$PSTYLEMODE
290
     1
  9
$FINGERPRINTGUID
  2
{18C9445F-3FAD-4025-B3FF-A2CA28FDBD53}
  9
$VERSIONGUID
  2
{FAEB1C32-E019-11D5-929B-00C0DF256EC4}
  9
$EXTNAMES
290
     1
  9
$PSVPSCALE
 40
0.0
  9
$OLESTARTUP
290
     0
  0
ENDSEC
  0
SECTION
  2
CLASSES
  0
CLASS
  1
ACDBDICTIONARYWDFLT
  2
AcDbDictionaryWithDefault
  3
ObjectDBX Classes
 90
        0
280
     0
281
     0
  0
CLASS
  1
VISUALSTYLE
  2
AcDbVisualStyle
  3
ObjectDBX Classes
 90
     4095
280
     0
281
     0
  0
CLASS
  1
MATERIAL
  2
AcDbMaterial
  3
ObjectDBX Classes
 90
     1153
280
     0
281
     0
  0
CLASS
  1
SCALE
  2
AcDbScale
  3
ObjectDBX Classes
 90
     1153
280
     0
281
     0
  0
CLASS
  1
SUN
  2
AcDbSun
  3
SCENEOE
 90
     1153
280
     0
281
     0
  0
CLASS
  1
DICTIONARYVAR
  2
AcDbDictionaryVar
  3
ObjectDBX Classes
 90
        0
280
     0
281
     0
  0
CLASS
  1
ACDBPLACEHOLDER
  2
AcDbPlaceHolder
  3
ObjectDBX Classes
 90
        0
280
     0
281
     0
  0
CLASS
  1
LAYOUT
  2
AcDbLayout
  3
ObjectDBX Classes
 90
        0
280
     0
281
     0
  0
ENDSEC
  0
SECTION
  2
TABLES
  0
TABLE
  2
VPORT
  5
8
330
0
100
AcDbSymbolTable
 70
     1
  0
VPORT
  5
29
330
8
100
AcDbSymbolTableRecord
100
AcDbViewportTableRecord
  2
*Active
 70
     0
 10
0.0
 20
0.0
 11
1.0
 21
1.0
 12
-210.0000000000001
 22
297.0000000000001
 13
0.0
 23
0.0
 14
0.5
 24
0.5
 15
0.5
 25
0.5
 16
0.0
 26
0.0
 36
1.0
 17
0.0
 27
0.0
 37
0.0
 40
653.4000000000003
 41
1.60267857142857
 42
50.0
 43
0.0
 44
0.0
 50
0.0
 51
0.0
 71
     0
 72
   100
 73
     1
 74
     3
 75
     0
 76
     0
 77
     0
 78
     0
281
     0
 65
     1
110
0.0
120
0.0
130
0.0
111
1.0
121
0.0
131
0.0
112
0.0
122
1.0
132
0.0
 79
     0
146
0.0
  0
ENDTAB
  0
TABLE
  2
LTYPE
  5
5
330
0
100
AcDbSymbolTable
 70
     8
  0
LTYPE
  5
14
330
5
100
AcDbSymbolTableRecord
100
AcDbLinetypeTableRecord
  2
ByBlock
 70
     0
  3

 72
    65
 73
     0
 40
0.0
  0
LTYPE
  5
15
330
5
100
AcDbSymbolTableRecord
100
AcDbLinetypeTableRecord
  2
ByLayer
 70
     0
  3

 72
    65
 73
     0
 40
0.0
  0
LTYPE
  5
16
330
5
100
AcDbSymbolTableRecord
100
AcDbLinetypeTableRecord
  2
Continuous
 70
     0
  3
Solid line
 72
    65
 73
     0
 40
0.0
  0
LTYPE
  5
6A
330
5
100
AcDbSymbolTableRecord
100
AcDbLinetypeTableRecord
  2
DASHED
 70
     0
  3
Dashed
 72
    65
 73
     2
 40
15.0
 49
7.0
 74
     0
 49
-8.0
 74
     0
  0
LTYPE
  5
6B
330
5
100
AcDbSymbolTableRecord
100
AcDbLinetypeTableRecord
  2
DOTTED
 70
     0
  3
Dotted
 72
    65
 73
     2
 40
1.0
 49
0.0
 74
     0
 49
-1.0
 74
     0
  0
LTYPE
  5
6C
330
5
100
AcDbSymbolTableRecord
100
AcDbLinetypeTableRecord
  2
DOT_CENTER
 70
     0
  3
Dot_Center
 72
    65
 73
     4
 40
14.0
 49
12.0
 74
     0
 49
-1.0
 74
     0
 49
0.0
 74
     0
 49
-1.0
 74
     0
  0
LTYPE
  5
6D
330
5
100
AcDbSymbolTableRecord
100
AcDbLinetypeTableRecord
  2
LONG_DASHED
 70
     0
  3
Long_Dashed
 72
    65
 73
     2
 40
15.0
 49
10.0
 74
     0
 49
-5.0
 74
     0
  0
LTYPE
  5
6E
330
5
100
AcDbSymbolTableRecord
100
AcDbLinetypeTableRecord
  2
DASH_CENTER
 70
     0
  3
Dash_Center
 72
    65
 73
     4
 40
14.0
 49
11.0
 74
     0
 49
-1.0
 74
     0
 49
1.0
 74
     0
 49
-1.0
 74
     0
  0
LTYPE
  5
6F
330
5
100
AcDbSymbolTableRecord
100
AcDbLinetypeTableRecord
  2
PHANTOM
 70
     0
  3
Phantom
 72
    65
 73
     6
 40
13.0
 49
10.0
 74
     0
 49
-1.0
 74
     0
 49
0.0
 74
     0
 49
-1.0
 74
     0
 49
0.0
 74
     0
 49
-1.0
 74
     0
  0
LTYPE
  5
70
330
5
100
AcDbSymbolTableRecord
100
AcDbLinetypeTableRecord
  2
CENTER_DASH_DASH
 70
     0
  3
Center_Dash_Dash
 72
    65
 73
     6
 40
14.0
 49
9.0
 74
     0
 49
-1.0
 74
     0
 49
1.0
 74
     0
 49
-1.0
 74
     0
 49
1.0
 74
     0
 49
-1.0
 74
     0
  0
ENDTAB
  0
TABLE
  2
LAYER
  5
2
330
0
100
AcDbSymbolTable
 70
     2
  0
LAYER
  5
10
330
2
100
AcDbSymbolTableRecord
100
AcDbLayerTableRecord
  2
0
 70
     0
 62
     7
  6
Continuous
370
    -3
390
F
  0
LAYER
  5
71
330
2
100
AcDbSymbolTableRecord
100
AcDbLayerTableRecord
  2
1
 70
     0
 62
     7
  6
Continuous
370
    -3
390
F
  0
ENDTAB
  0
TABLE
  2
STYLE
  5
3
330
0
100
AcDbSymbolTable
 70
     4
  0
STYLE
  5
11
330
3
100
AcDbSymbolTableRecord
100
AcDbTextStyleTableRecord
  2
Standard
 70
     0
 40
0.0
 41
1.0
 50
0.0
 71
     0
 42
0.2
  3
txt
  4

  0
STYLE
  5
CB
330
3
100
AcDbSymbolTableRecord
100
AcDbTextStyleTableRecord
  2
CONVERTER_11
 70
     0
 40
0.0
 41
1.2
 50
0.0
 71
     0
 42
0.2
  3
ARIAL.TTF
  4

  0
STYLE
  5
D4
330
3
100
AcDbSymbolTableRecord
100
AcDbTextStyleTableRecord
  2
CONVERTER_12
 70
     0
 40
0.0
 41
1.38
 50
0.0
 71
     0
 42
0.2
  3
ARIAL.TTF
  4

  0
STYLE
  5
198
330
3
100
AcDbSymbolTableRecord
100
AcDbTextStyleTableRecord
  2
CONVERTER_13
 70
     0
 40
0.0
 41
0.95
 50
0.0
 71
     0
 42
0.2
  3
simplex.shx
  4

  0
ENDTAB
  0
TABLE
  2
VIEW
  5
6
330
0
100
AcDbSymbolTable
 70
     0
  0
ENDTAB
  0
TABLE
  2
UCS
  5
7
330
0
100
AcDbSymbolTable
 70
     0
  0
ENDTAB
  0
TABLE
  2
APPID
  5
9
330
0
100
AcDbSymbolTable
 70
     1
  0
APPID
  5
12
330
9
100
AcDbSymbolTableRecord
100
AcDbRegAppTableRecord
  2
ACAD
 70
     0
  0
ENDTAB
  0
TABLE
  2
DIMSTYLE
  5
A
330
0
100
AcDbSymbolTable
 70
     7
100
AcDbDimStyleTable
  0
DIMSTYLE
105
27
330
A
100
AcDbSymbolTableRecord
100
AcDbDimStyleTableRecord
  2
Standard
 70
     0
178
     0
340
11
  0
DIMSTYLE
105
19C
102
{ACAD_REACTORS
330
19D
102
}
330
A
100
AcDbSymbolTableRecord
100
AcDbDimStyleTableRecord
  2
ME10_DIM_10
 70
     0
 41
6.0
 42
1.0
 44
2.0
 73
     0
 74
     0
 77
     1
 78
     8
140
6.0
147
4.0
172
     1
173
     1
174
     1
175
     1
176
     7
177
     7
271
     2
178
     7
271
     2
340
198
  0
DIMSTYLE
105
1A7
102
{ACAD_REACTORS
330
1A8
102
}
330
A
100
AcDbSymbolTableRecord
100
AcDbDimStyleTableRecord
  2
ME10_DIM_11
 70
     0
 41
6.0
 42
1.0
 44
2.0
 73
     0
 74
     0
 77
     1
 78
     8
140
6.0
147
4.0
172
     1
173
     1
174
     1
175
     1
176
     7
177
     7
271
     2
178
     7
271
     2
340
198
  0
DIMSTYLE
105
1B2
102
{ACAD_REACTORS
330
1B3
102
}
330
A
100
AcDbSymbolTableRecord
100
AcDbDimStyleTableRecord
  2
ME10_DIM_12
 70
     0
 41
6.0
 42
1.0
 44
2.0
 73
     0
 74
     0
 77
     1
 78
     8
140
6.0
147
4.0
172
     1
173
     1
174
     1
175
     1
176
     7
177
     7
271
     2
178
     7
271
     2
340
198
  0
DIMSTYLE
105
1BD
102
{ACAD_REACTORS
330
1BE
102
}
330
A
100
AcDbSymbolTableRecord
100
AcDbDimStyleTableRecord
  2
ME10_DIM_13
 70
     0
 41
6.0
 42
1.0
 44
2.0
 73
     0
 74
     0
 77
     1
 78
     8
140
6.0
147
4.0
172
     1
173
     1
174
     1
175
     1
176
     7
177
     7
271
     2
178
     7
271
     2
340
198
  0
DIMSTYLE
105
1CA
102
{ACAD_REACTORS
330
1CB
102
}
330
A
100
AcDbSymbolTableRecord
100
AcDbDimStyleTableRecord
  2
ME10_DIM_14
 70
     0
 41
6.0
 42
1.0
 44
2.0
 73
     0
 74
     0
 77
     1
 78
     8
140
6.0
147
4.0
172
     1
173
     1
174
     1
175
     1
176
     7
177
     7
271
     2
178
     7
271
     2
340
198
  0
DIMSTYLE
105
1D5
102
{ACAD_REACTORS
330
1D6
102
}
330
A
100
AcDbSymbolTableRecord
100
AcDbDimStyleTableRecord
  2
ME10_DIM_15
 70
     0
 41
6.0
 42
1.0
 44
2.0
 73
     0
 74
     0
 77
     1
 78
     8
140
6.0
147
4.0
172
     1
173
     1
174
     1
175
     1
176
     7
177
     7
271
     2
178
     7
271
     2
340
198
  0
ENDTAB
  0
TABLE
  2
BLOCK_RECORD
  5
1
330
0
100
AcDbSymbolTable
 70
    10
  0
BLOCK_RECORD
  5
1F
330
1
100
AcDbSymbolTableRecord
100
AcDbBlockTableRecord
  2
*Model_Space
340
22
  0
BLOCK_RECORD
  5
1B
330
1
100
AcDbSymbolTableRecord
100
AcDbBlockTableRecord
  2
*Paper_Space
340
1E
  0
BLOCK_RECORD
  5
23
330
1
100
AcDbSymbolTableRecord
100
AcDbBlockTableRecord
  2
*Paper_Space0
340
26
  0
BLOCK_RECORD
  5
72
330
1
100
AcDbSymbolTableRecord
100
AcDbBlockTableRecord
  2
_dummy_frame
340
0
102
{BLKREFS
331
7C
102
}
  0
BLOCK_RECORD
  5
75
330
1
100
AcDbSymbolTableRecord
100
AcDbBlockTableRecord
  2
_formato_A4
340
0
102
{BLKREFS
331
79
102
}
  0
BLOCK_RECORD
  5
78
330
1
100
AcDbSymbolTableRecord
100
AcDbBlockTableRecord
  2
A4
340
0
102
{BLKREFS
331
7D
102
}
  0
BLOCK_RECORD
  5
190
330
1
100
AcDbSymbolTableRecord
100
AcDbBlockTableRecord
  2
*D4
340
0
  0
BLOCK_RECORD
  5
19E
330
1
100
AcDbSymbolTableRecord
100
AcDbBlockTableRecord
  2
*D5
340
0
  0
BLOCK_RECORD
  5
1A9
330
1
100
AcDbSymbolTableRecord
100
AcDbBlockTableRecord
  2
*D6
340
0
  0
BLOCK_RECORD
  5
1B4
330
1
100
AcDbSymbolTableRecord
100
AcDbBlockTableRecord
  2
*D7
340
0
  0
BLOCK_RECORD
  5
1BF
330
1
100
AcDbSymbolTableRecord
100
AcDbBlockTableRecord
  2
*D8
340
0
  0
BLOCK_RECORD
  5
1CC
330
1
100
AcDbSymbolTableRecord
100
AcDbBlockTableRecord
  2
*D9
340
0
  0
ENDTAB
  0
ENDSEC
  0
SECTION
  2
BLOCKS
  0
BLOCK
  5
20
330
1F
100
AcDbEntity
  8
0
100
AcDbBlockBegin
  2
*Model_Space
 70
     0
 10
0.0
 20
0.0
 30
0.0
  3
*Model_Space
  1
*Model_Space
  0
ENDBLK
  5
21
330
1F
100
AcDbEntity
  8
0
100
AcDbBlockEnd
  0
BLOCK
  5
1C
330
1B
100
AcDbEntity
 67
     1
  8
0
100
AcDbBlockBegin
  2
*Paper_Space
 70
     0
 10
0.0
 20
0.0
 30
0.0
  3
*Paper_Space
  1
*Paper_Space
  0
ENDBLK
  5
1D
330
1B
100
AcDbEntity
 67
     1
  8
0
100
AcDbBlockEnd
  0
BLOCK
  5
24
330
23
100
AcDbEntity
  8
0
100
AcDbBlockBegin
  2
*Paper_Space0
 70
     0
 10
0.0
 20
0.0
 30
0.0
  3
*Paper_Space0
  1
*Paper_Space0
  0
ENDBLK
  5
25
330
23
100
AcDbEntity
  8
0
100
AcDbBlockEnd
  0
BLOCK
  5
73
330
72
100
AcDbEntity
  8
0
100
AcDbBlockBegin
  2
_dummy_frame
 70
     0
 10
154.497078881098
 20
282.570441676104
 30
0.0
  3
_dummy_frame
  1
_dummy_frame
  0
POINT
  5
7E
330
72
100
AcDbEntity
  8
1
 62
     7
 60
     1
100
AcDbPoint
 10
154.497078881098
 20
282.570441676104
 30
0.0
  0
ENDBLK
  5
74
330
72
100
AcDbEntity
  8
0
100
AcDbBlockEnd
  0
BLOCK
  5
76
330
75
100
AcDbEntity
  8
0
100
AcDbBlockBegin
  2
_formato_A4
 70
     0
 10
480.6788565328411
 20
-655.5834282693753
 30
0.0
  3
_formato_A4
  1
_formato_A4
  0
LINE
  5
7F
330
75
100
AcDbEntity
  8
1
  6
Continuous
 62
     7
100
AcDbLine
 10
291.6788565328411
 20
-635.5834282693753
 30
0.0
 11
475.6788565328411
 21
-635.5834282693753
 31
0.0
  0
LINE
  5
80
330
75
100
AcDbEntity
  8
1
  6
Continuous
 62
     7
100
AcDbLine
 10
291.6788565328411
 20
-650.5834282693754
 30
0.0
 11
475.6788565328411
 21
-650.5834282693754
 31
0.0
  0
LINE
  5
81
330
75
100
AcDbEntity
  8
1
  6
Continuous
 62
     7
100
AcDbLine
 10
316.6788565328412
 20
-620.5834282693753
 30
0.0
 11
316.6788565328412
 21
-615.5834282693753
 31
0.0
  0
LINE
  5
82
330
75
100
AcDbEntity
  8
1
  6
Continuous
 62
     7
100
AcDbLine
 10
298.6788565328411
 20
-620.5834282693753
 30
0.0
 11
298.6788565328411
 21
-615.5834282693753
 31
0.0
  0
LINE
  5
83
330
75
100
AcDbEntity
  8
1
  6
Continuous
 62
     7
100
AcDbLine
 10
291.6788565328411
 20
-615.5834282693753
 30
0.0
 11
475.6788565328411
 21
-615.5834282693753
 31
0.0
  0
LINE
  5
84
330
75
100
AcDbEntity
  8
1
  6
Continuous
 62
     7
100
AcDbLine
 10
316.6788565328412
 20
-625.5834282693753
 30
0.0
 11
316.6788565328412
 21
-620.5834282693753
 31
0.0
  0
LINE
  5
85
330
75
100
AcDbEntity
  8
1
  6
Continuous
 62
     7
100
AcDbLine
 10
298.6788565328411
 20
-625.5834282693753
 30
0.0
 11
298.6788565328411
 21
-620.5834282693753
 31
0.0
  0
LINE
  5
86
330
75
100
AcDbEntity
  8
1
  6
Continuous
 62
     7
100
AcDbLine
 10
291.6788565328411
 20
-620.5834282693753
 30
0.0
 11
475.6788565328411
 21
-620.5834282693753
 31
0.0
  0
LINE
  5
87
330
75
100
AcDbEntity
  8
1
  6
Continuous
 62
     7
100
AcDbLine
 10
316.6788565328412
 20
-630.5834282693753
 30
0.0
 11
316.6788565328412
 21
-625.5834282693753
 31
0.0
  0
LINE
  5
88
330
75
100
AcDbEntity
  8
1
  6
Continuous
 62
     7
100
AcDbLine
 10
298.6788565328411
 20
-630.5834282693753
 30
0.0
 11
298.6788565328411
 21
-625.5834282693753
 31
0.0
  0
LINE
  5
89
330
75
100
AcDbEntity
  8
1
  6
Continuous
 62
     7
100
AcDbLine
 10
291.6788565328411
 20
-625.5834282693753
 30
0.0
 11
475.6788565328411
 21
-625.5834282693753
 31
0.0
  0
LINE
  5
8A
330
75
100
AcDbEntity
  8
1
  6
Continuous
 62
     7
100
AcDbLine
 10
316.6788565328412
 20
-635.5834282693753
 30
0.0
 11
316.6788565328412
 21
-630.5834282693753
 31
0.0
  0
LINE
  5
8B
330
75
100
AcDbEntity
  8
1
  6
Continuous
 62
     7
100
AcDbLine
 10
298.6788565328411
 20
-635.5834282693753
 30
0.0
 11
298.6788565328411
 21
-630.5834282693753
 31
0.0
  0
LINE
  5
8C
330
75
100
AcDbEntity
  8
1
  6
Continuous
 62
     7
100
AcDbLine
 10
291.6788565328411
 20
-630.5834282693753
 30
0.0
 11
475.6788565328411
 21
-630.5834282693753
 31
0.0
  0
LINE
  5
8D
102
{ACAD_REACTORS
330
D6
102
}
330
75
100
AcDbEntity
  8
1
  6
Continuous
 62
     7
100
AcDbLine
 10
466.5217313727469
 20
-645.025426188995
 30
0.0
 11
465.1883980394136
 21
-645.7946569582256
 31
0.0
  0
LINE
  5
8E
102
{ACAD_REACTORS
330
D6
102
}
330
75
100
AcDbEntity
  8
1
  6
Continuous
 62
     7
100
AcDbLine
 10
465.3551572215838
 20
-644.9287917367274
 30
0.0
 11
466.1885830704206
 21
-644.4479691316291
 31
0.0
  0
LINE
  5
8F
102
{ACAD_REACTORS
330
D6
102
}
330
75
100
AcDbEntity
  8
1
  6
Continuous
 62
     7
100
AcDbLine
 10
465.3551572215838
 20
-643.4167616027087
 30
0.0
 11
465.3551572215838
 21
-644.9287917367274
 31
0.0
  0
LINE
  5
90
102
{ACAD_REACTORS
330
D6
102
}
330
75
100
AcDbEntity
  8
1
  6
Continuous
 62
     7
100
AcDbLine
 10
466.3551572215838
 20
-643.4167616027087
 30
0.0
 11
465.3551572215838
 21
-643.4167616027087
 31
0.0
  0
LINE
  5
91
102
{ACAD_REACTORS
330
D6
102
}
330
75
100
AcDbEntity
  8
1
  6
Continuous
 62
     7
100
AcDbLine
 10
465.3551572215838
 20
-642.750094936042
 30
0.0
 11
466.3551572215838
 21
-642.750094936042
 31
0.0
  0
LINE
  5
92
102
{ACAD_REACTORS
330
D6
102
}
330
75
100
AcDbEntity
  8
1
  6
Continuous
 62
     7
100
AcDbLine
 10
465.3551572215838
 20
-641.2380648020234
 30
0.0
 11
465.3551572215838
 21
-642.750094936042
 31
0.0
  0
LINE
  5
93
102
{ACAD_REACTORS
330
D6
102
}
330
75
100
AcDbEntity
  8
1
  6
Continuous
 62
     7
100
AcDbLine
 10
466.1885830704206
 20
-641.7188874071215
 30
0.0
 11
465.3551572215838
 21
-641.2380648020234
 31
0.0
  0
LINE
  5
94
102
{ACAD_REACTORS
330
D6
102
}
330
75
100
AcDbEntity
  8
1
  6
Continuous
 62
     7
100
AcDbLine
 10
465.1883980394136
 20
-640.372199580525
 30
0.0
 11
466.5217313727469
 21
-641.1414303497559
 31
0.0
  0
LINE
  5
95
102
{ACAD_REACTORS
330
D7
102
}
330
75
100
AcDbEntity
  8
1
  6
Continuous
 62
     7
100
AcDbLine
 10
458.0218238882504
 20
-644.7366976603121
 30
0.0
 11
458.0218238882504
 21
-641.4301588784386
 31
0.0
  0
LINE
  5
96
102
{ACAD_REACTORS
330
D7
102
}
330
75
100
AcDbEntity
  8
1
  6
Continuous
 62
     7
100
AcDbLine
 10
458.6884905549171
 20
-644.544176352112
 30
0.0
 11
458.6884905549171
 21
-644.7366976603121
 31
0.0
  0
LINE
  5
97
102
{ACAD_REACTORS
330
D7
102
}
330
75
100
AcDbEntity
  8
1
  6
Continuous
 62
     7
100
AcDbLine
 10
458.6884905549171
 20
-641.4301588784386
 30
0.0
 11
458.6884905549171
 21
-644.544176352112
 31
0.0
  0
LINE
  5
98
102
{ACAD_REACTORS
330
D8
102
}
330
75
100
AcDbEntity
  8
1
  6
Continuous
 62
     7
100
AcDbLine
 10
461.8552497370873
 20
-647.1408108043795
 30
0.0
 11
459.6886755859241
 21
-645.8908641787084
 31
0.0
  0
LINE
  5
99
102
{ACAD_REACTORS
330
D8
102
}
330
75
100
AcDbEntity
  8
1
  6
Continuous
 62
     7
100
AcDbLine
 10
460.0218238882504
 20
-645.3134071213426
 30
0.0
 11
462.1883980394136
 21
-646.5633537470137
 31
0.0
  0
LINE
  5
9A
102
{ACAD_REACTORS
330
D8
102
}
330
75
100
AcDbEntity
  8
1
  6
Continuous
 62
     7
100
AcDbLine
 10
460.0218238882504
 20
-640.6609281092079
 30
0.0
 11
460.0218238882504
 21
-645.3134071213426
 31
0.0
  0
LINE
  5
9B
102
{ACAD_REACTORS
330
D8
102
}
330
75
100
AcDbEntity
  8
1
  6
Continuous
 62
     7
100
AcDbLine
 10
459.3551572215838
 20
-645.3134071213427
 30
0.0
 11
459.3551572215838
 21
-640.6609281092079
 31
0.0
  0
LINE
  5
9C
102
{ACAD_REACTORS
330
D9
102
}
330
75
100
AcDbEntity
  8
1
  6
Continuous
 62
     7
100
AcDbLine
 10
463.5273902046271
 20
-639.719727851103
 30
0.0
 11
462.3551572215838
 21
-641.750094936042
 31
0.0
  0
LINE
  5
9D
102
{ACAD_REACTORS
330
D9
102
}
330
75
100
AcDbEntity
  8
1
  6
Continuous
 62
     7
100
AcDbLine
 10
464.0218238882504
 20
-646.2751591987735
 30
0.0
 11
464.0218238882504
 21
-639.8522109573407
 31
0.0
  0
LINE
  5
9E
102
{ACAD_REACTORS
330
D9
102
}
330
75
100
AcDbEntity
  8
1
  6
Continuous
 62
     7
100
AcDbLine
 10
463.3551572215838
 20
-643.0834282693753
 30
0.0
 11
463.3551572215838
 21
-646.2751591987735
 31
0.0
  0
LINE
  5
9F
102
{ACAD_REACTORS
330
D9
102
}
330
75
100
AcDbEntity
  8
1
  6
Continuous
 62
     7
100
AcDbLine
 10
461.3551572215838
 20
-644.7358431967424
 30
0.0
 11
461.3551572215838
 21
-643.0834282693753
 31
0.0
  0
LINE
  5
A0
102
{ACAD_REACTORS
330
D9
102
}
330
75
100
AcDbEntity
  8
1
  6
Continuous
 62
     7
100
AcDbLine
 10
460.6884905549171
 20
-643.0834282693753
 30
0.0
 11
460.6884905549171
 21
-644.7358431967424
 31
0.0
  0
LINE
  5
A1
102
{ACAD_REACTORS
330
D9
102
}
330
75
100
AcDbEntity
  8
1
  6
Continuous
 62
     7
100
AcDbLine
 10
461.1829242385405
 20
-639.719727851103
 30
0.0
 11
462.3551572215838
 21
-641.750094936042
 31
0.0
  0
LINE
  5
A2
102
{ACAD_REACTORS
330
D9
102
}
330
75
100
AcDbEntity
  8
1
  6
Continuous
 62
     7
100
AcDbLine
 10
460.6884905549171
 20
-643.0834282693753
 30
0.0
 11
460.6884905549171
 21
-639.8522109573407
 31
0.0
  0
LINE
  5
A3
330
75
100
AcDbEntity
  8
1
  6
Continuous
 62
     7
100
AcDbLine
 10
462.3551572215838
 20
-648.0834282693753
 30
0.0
 11
453.9387219464422
 21
-643.2277925337168
 31
0.0
  0
LINE
  5
A4
330
75
100
AcDbEntity
  8
1
  6
Continuous
 62
     7
100
AcDbLine
 10
470.7715924967253
 20
-643.2277925337168
 30
0.0
 11
462.3551572215838
 21
-648.0834282693753
 31
0.0
  0
LINE
  5
A5
330
75
100
AcDbEntity
  8
1
  6
Continuous
 62
     7
100
AcDbLine
 10
462.3551572215838
 20
-638.0834282693753
 30
0.0
 11
470.7715924967253
 21
-642.939064005034
 31
0.0
  0
LINE
  5
A6
330
75
100
AcDbEntity
  8
1
  6
Continuous
 62
     7
100
AcDbLine
 10
453.9387219464422
 20
-642.939064005034
 30
0.0
 11
462.3551572215838
 21
-638.0834282693753
 31
0.0
  0
LINE
  5
A7
102
{ACAD_REACTORS
330
D9
102
}
330
75
100
AcDbEntity
  8
1
  6
Continuous
 62
     7
100
AcDbLine
 10
461.3551572215838
 20
-641.3513774618065
 30
0.0
 11
461.3551572215838
 21
-643.0834282693753
 31
0.0
  0
LINE
  5
A8
102
{ACAD_REACTORS
330
D9
102
}
330
75
100
AcDbEntity
  8
1
  6
Continuous
 62
     7
100
AcDbLine
 10
462.2108196542864
 20
-642.8334282693753
 30
0.0
 11
461.3551572215838
 21
-641.3513774618065
 31
0.0
  0
LINE
  5
A9
102
{ACAD_REACTORS
330
D9
102
}
330
75
100
AcDbEntity
  8
1
  6
Continuous
 62
     7
100
AcDbLine
 10
463.3551572215838
 20
-641.3513774618065
 30
0.0
 11
462.4994947888812
 21
-642.8334282693753
 31
0.0
  0
LINE
  5
AA
102
{ACAD_REACTORS
330
D9
102
}
330
75
100
AcDbEntity
  8
1
  6
Continuous
 62
     7
100
AcDbLine
 10
463.3551572215838
 20
-643.0834282693753
 30
0.0
 11
463.3551572215838
 21
-641.3513774618065
 31
0.0
  0
LINE
  5
AB
102
{ACAD_REACTORS
330
D6
102
}
330
75
100
AcDbEntity
  8
1
  6
Continuous
 62
     7
100
AcDbLine
 10
464.6884905549172
 20
-645.5059284295427
 30
0.0
 11
464.6884905549172
 21
-640.6609281092079
 31
0.0
  0
LINE
  5
AC
330
75
100
AcDbEntity
  8
1
  6
Continuous
 62
     7
100
AcDbLine
 10
291.6788565328411
 20
-363.5834282693752
 30
0.0
 11
291.6788565328411
 21
-650.5834282693754
 31
0.0
  0
LINE
  5
AD
330
75
100
AcDbEntity
  8
1
  6
Continuous
 62
     7
100
AcDbLine
 10
475.6788565328411
 20
-363.5834282693752
 30
0.0
 11
291.6788565328411
 21
-363.5834282693752
 31
0.0
  0
LINE
  5
AE
330
75
100
AcDbEntity
  8
1
  6
Continuous
 62
     7
100
AcDbLine
 10
475.6788565328411
 20
-650.5834282693754
 30
0.0
 11
475.6788565328411
 21
-363.5834282693752
 31
0.0
  0
LINE
  5
AF
330
75
100
AcDbEntity
  8
1
  6
Continuous
 62
     7
100
AcDbLine
 10
480.6788565328411
 20
-358.5834282693752
 30
0.0
 11
270.678856532841
 21
-358.5834282693752
 31
0.0
  0
LINE
  5
B0
330
75
100
AcDbEntity
  8
1
  6
Continuous
 62
     7
100
AcDbLine
 10
270.678856532841
 20
-358.5834282693752
 30
0.0
 11
270.678856532841
 21
-655.5834282693753
 31
0.0
  0
LINE
  5
B1
330
75
100
AcDbEntity
  8
1
  6
Continuous
 62
     7
100
AcDbLine
 10
270.678856532841
 20
-655.5834282693753
 30
0.0
 11
480.6788565328411
 21
-655.5834282693753
 31
0.0
  0
LINE
  5
B2
330
75
100
AcDbEntity
  8
1
  6
Continuous
 62
     7
100
AcDbLine
 10
480.6788565328411
 20
-655.5834282693753
 30
0.0
 11
480.6788565328411
 21
-358.5834282693752
 31
0.0
  0
LINE
  5
B3
330
75
100
AcDbEntity
  8
1
  6
Continuous
 62
     7
100
AcDbLine
 10
270.678856532841
 20
-507.0834282693755
 30
0.0
 11
285.678856532841
 21
-507.0834282693755
 31
0.0
  0
LINE
  5
B4
330
75
100
AcDbEntity
  8
1
  6
Continuous
 62
     7
100
AcDbLine
 10
291.6788565328411
 20
-645.5834282693754
 30
0.0
 11
321.6788565328411
 21
-645.5834282693754
 31
0.0
  0
LINE
  5
B5
330
75
100
AcDbEntity
  8
1
  6
Continuous
 62
     7
100
AcDbLine
 10
321.6788565328411
 20
-635.5834282693753
 30
0.0
 11
321.6788565328411
 21
-650.5834282693753
 31
0.0
  0
LINE
  5
B6
330
75
100
AcDbEntity
  8
1
  6
Continuous
 62
     7
100
AcDbLine
 10
449.0314579103265
 20
-635.5834282693753
 30
0.0
 11
449.0314579103265
 21
-650.5834282693753
 31
0.0
  0
LINE
  5
B7
330
75
100
AcDbEntity
  8
1
  6
Continuous
 62
     7
100
AcDbLine
 10
431.6788565328411
 20
-635.5834282693753
 30
0.0
 11
431.6788565328411
 21
-650.5834282693753
 31
0.0
  0
LINE
  5
B8
330
75
100
AcDbEntity
  8
1
  6
Continuous
 62
     7
100
AcDbLine
 10
291.6788565328411
 20
-635.5834282693753
 30
0.0
 11
291.6788565328411
 21
-650.5834282693754
 31
0.0
  0
LINE
  5
B9
330
75
100
AcDbEntity
  8
1
  6
Continuous
 62
     7
100
AcDbLine
 10
291.6788565328411
 20
-640.5834282693754
 30
0.0
 11
321.6788565328411
 21
-640.5834282693754
 31
0.0
  0
ARC
  5
BA
102
{ACAD_REACTORS
330
D6
102
}
330
75
100
AcDbEntity
  8
1
  6
Continuous
 62
     7
100
AcDbCircle
 10
466.3551572215838
 20
-644.7366976603121
 30
0.0
 40
0.3333333333333141
100
AcDbArc
 50
299.9816393688337
 51
119.9816393688409
  0
ARC
  5
BB
102
{ACAD_REACTORS
330
D6
102
}
330
75
100
AcDbEntity
  8
1
  6
Continuous
 62
     7
100
AcDbCircle
 10
466.3551572215838
 20
-643.0834282693753
 30
0.0
 40
0.3333333333333712
100
AcDbArc
 50
270.0
 51
90.0
  0
ARC
  5
BC
102
{ACAD_REACTORS
330
D6
102
}
330
75
100
AcDbEntity
  8
1
  6
Continuous
 62
     7
100
AcDbCircle
 10
466.3551572215838
 20
-641.4301588784386
 30
0.0
 40
0.3333333333333709
100
AcDbArc
 50
240.0183606311493
 51
60.01836063115653
  0
ARC
  5
BD
102
{ACAD_REACTORS
330
D7
102
}
330
75
100
AcDbEntity
  8
1
  6
Continuous
 62
     7
100
AcDbCircle
 10
458.3551572215838
 20
-644.7366976603121
 30
0.0
 40
0.3333333333333712
100
AcDbArc
 50
180.0
 51
0.0
  0
ARC
  5
BE
102
{ACAD_REACTORS
330
D7
102
}
330
75
100
AcDbEntity
  8
1
  6
Continuous
 62
     7
100
AcDbCircle
 10
458.3551572215838
 20
-641.4301588784386
 30
0.0
 40
0.3333333333333144
100
AcDbArc
 50
0.0
 51
180.0
  0
ARC
  5
BF
102
{ACAD_REACTORS
330
D8
102
}
330
75
100
AcDbEntity
  8
1
  6
Continuous
 62
     7
100
AcDbCircle
 10
462.0218238882504
 20
-646.8520822756966
 30
0.0
 40
0.3333333333333141
100
AcDbArc
 50
240.0183606311663
 51
60.01836063115783
  0
ARC
  5
C0
102
{ACAD_REACTORS
330
D8
102
}
330
75
100
AcDbEntity
  8
1
  6
Continuous
 62
     7
100
AcDbCircle
 10
459.6884905549171
 20
-640.6609281092079
 30
0.0
 40
0.3333333333333144
100
AcDbArc
 50
0.0
 51
180.0
  0
ARC
  5
C1
102
{ACAD_REACTORS
330
D9
102
}
330
75
100
AcDbEntity
  8
1
  6
Continuous
 62
     7
100
AcDbCircle
 10
463.7568576757751
 20
-639.8522109573407
 30
0.0
 40
0.2649662124753149
100
AcDbArc
 50
0.0
 51
149.9999999999695
  0
ARC
  5
C2
102
{ACAD_REACTORS
330
D9
102
}
330
75
100
AcDbEntity
  8
1
  6
Continuous
 62
     7
100
AcDbCircle
 10
463.6884905549172
 20
-646.2751591987735
 30
0.0
 40
0.3333333333334281
100
AcDbArc
 50
180.0
 51
0.0
  0
ARC
  5
C3
102
{ACAD_REACTORS
330
D9
102
}
330
75
100
AcDbEntity
  8
1
  6
Continuous
 62
     7
100
AcDbCircle
 10
461.0218238882504
 20
-644.7358431967424
 30
0.0
 40
0.3333333333333144
100
AcDbArc
 50
180.0
 51
0.0
  0
ARC
  5
C4
102
{ACAD_REACTORS
330
D9
102
}
330
75
100
AcDbEntity
  8
1
  6
Continuous
 62
     7
100
AcDbCircle
 10
460.9534567673924
 20
-639.8522109573407
 30
0.0
 40
0.2649662124752827
100
AcDbArc
 50
30.00000000001821
 51
180.0
  0
ARC
  5
C5
102
{ACAD_REACTORS
330
D6
102
}
330
75
100
AcDbEntity
  8
1
  6
Continuous
 62
     7
100
AcDbCircle
 10
465.0218238882504
 20
-645.5059284295427
 30
0.0
 40
0.3333333333332007
100
AcDbArc
 50
180.0
 51
299.9816393688421
  0
ARC
  5
C6
102
{ACAD_REACTORS
330
D6
102
}
330
75
100
AcDbEntity
  8
1
  6
Continuous
 62
     7
100
AcDbCircle
 10
465.0218238882504
 20
-640.6609281092079
 30
0.0
 40
0.3333333333333425
100
AcDbArc
 50
60.01836063115783
 51
180.0
  0
ARC
  5
C7
330
75
100
AcDbEntity
  8
1
  6
Continuous
 62
     7
100
AcDbCircle
 10
470.6883054211437
 20
-643.0834282693753
 30
0.0
 40
0.1666666666666854
100
AcDbArc
 50
299.9816393688506
 51
60.01836063112984
  0
ARC
  5
C8
330
75
100
AcDbEntity
  8
1
  6
Continuous
 62
     7
100
AcDbCircle
 10
454.0220090220239
 20
-643.0834282693753
 30
0.0
 40
0.1666666666666438
100
AcDbArc
 50
119.981639368904
 51
240.0183606311155
  0
ARC
  5
C9
102
{ACAD_REACTORS
330
D8
102
}
330
75
100
AcDbEntity
  8
1
  6
Continuous
 62
     7
100
AcDbCircle
 10
460.0218238882504
 20
-645.3134071213426
 30
0.0
 40
0.6666666666666288
100
AcDbArc
 50
180.0000000000097
 51
240.0183606311578
  0
ARC
  5
CA
102
{ACAD_REACTORS
330
D9
102
}
330
75
100
AcDbEntity
  8
1
  6
Continuous
 62
     7
100
AcDbCircle
 10
462.3551572215838
 20
-642.750094936042
 30
0.0
 40
0.1666666666666096
100
AcDbArc
 50
209.9999999999812
 51
330.0000000000188
  0
MTEXT
  5
CC
330
75
100
AcDbEntity
  8
1
 62
     7
100
AcDbMText
 10
440.3551572215839
 20
-645.5227888486193
 30
0.0
 40
4.5
 41
0.0
 71
     5
 72
     1
  1
1:2
  7
CONVERTER_11
 73
     1
 44
1.32052821128451
  0
MTEXT
  5
CD
330
75
100
AcDbEntity
  8
1
 62
     7
100
AcDbMText
 10
440.3551572215839
 20
-639.3227888486193
 30
0.0
 40
3.0
 41
0.0
 71
     5
 72
     1
  1
Scale
  7
CONVERTER_11
 73
     1
 44
1.32052821128451
  0
MTEXT
  5
CE
330
75
100
AcDbEntity
  8
1
 62
     7
100
AcDbMText
 10
327.9551572215838
 20
-643.0834282693753
 30
0.0
 40
4.5
 41
0.0
 71
     4
 72
     1
  1
APF 12\PMounting plate 12VC
  7
CONVERTER_11
 73
     1
 44
0.90036014405762
  0
MTEXT
  5
CF
330
75
100
AcDbEntity
  8
1
 62
     7
100
AcDbMText
 10
303.2788565328411
 20
-648.0834282693754
 30
0.0
 40
3.0
 41
0.0
 71
     4
 72
     1
  1
D. Bonino
  7
CONVERTER_11
 73
     1
 44
1.32052821128451
  0
MTEXT
  5
D0
330
75
100
AcDbEntity
  8
1
 62
     7
100
AcDbMText
 10
292.6788565328411
 20
-648.0834282693754
 30
0.0
 40
3.0
 41
0.0
 71
     4
 72
     1
  1
Sign.
  7
CONVERTER_11
 73
     1
 44
1.32052821128451
  0
MTEXT
  5
D1
330
75
100
AcDbEntity
  8
1
 62
     7
100
AcDbMText
 10
303.2788565328411
 20
-643.0834282693754
 30
0.0
 40
3.0
 41
0.0
 71
     4
 72
     1
  1
05/05/16
  7
CONVERTER_11
 73
     1
 44
1.32052821128451
  0
MTEXT
  5
D2
330
75
100
AcDbEntity
  8
1
 62
     7
100
AcDbMText
 10
292.6788565328411
 20
-643.0834282693754
 30
0.0
 40
3.0
 41
0.0
 71
     4
 72
     1
  1
Date
  7
CONVERTER_11
 73
     1
 44
1.32052821128451
  0
MTEXT
  5
D3
330
75
100
AcDbEntity
  8
1
 62
     7
100
AcDbMText
 10
286.678856532841
 20
-504.0834282693755
 30
0.0
 40
4.0
 41
0.0
 71
     5
 72
     1
  1
Diritti riservati      All rights reserved
  7
CONVERTER_11
 11
0.0
 21
1.0
 31
0.0
 73
     1
 44
1.32052821128451
  0
MTEXT
  5
D5
330
75
100
AcDbEntity
  8
1
 62
     7
100
AcDbMText
 10
306.6788565328411
 20
-638.0834282693754
 30
0.0
 40
2.5
 41
0.0
 71
     5
 72
     1
  1
dimensions in mm
  7
CONVERTER_12
 73
     1
 44
0.60024009603842
  0
HATCH
  5
D6
330
75
100
AcDbEntity
  8
1
  6
Continuous
 62
     7
100
AcDbHatch
 10
0.0
 20
0.0
 30
0.0
210
0.0
220
0.0
230
1.0
  2
SOLID
 70
     1
 71
     1
 91
        1
 92
        1
 93
       14
 72
     2
 10
465.0218238882504
 20
-640.6609281092079
 40
0.3333333333333425
 50
60.01836063115783
 51
180.0
 73
     1
 72
     1
 10
464.6884905549172
 20
-640.6609281092079
 11
464.6884905549172
 21
-645.5059284295427
 72
     2
 10
465.0218238882504
 20
-645.5059284295427
 40
0.3333333333332007
 50
180.0
 51
299.9816393688421
 73
     1
 72
     1
 10
465.1883980394136
 20
-645.7946569582256
 11
466.5217313727469
 21
-645.025426188995
 72
     2
 10
466.3551572215838
 20
-644.7366976603121
 40
0.3333333333333141
 50
299.9816393688337
 51
479.9816393688409
 73
     1
 72
     1
 10
466.1885830704206
 20
-644.4479691316291
 11
465.3551572215838
 21
-644.9287917367274
 72
     1
 10
465.3551572215838
 20
-644.9287917367274
 11
465.3551572215838
 21
-643.4167616027087
 72
     1
 10
465.3551572215838
 20
-643.4167616027087
 11
466.3551572215838
 21
-643.4167616027087
 72
     2
 10
466.3551572215838
 20
-643.0834282693753
 40
0.3333333333333712
 50
270.0
 51
450.0
 73
     1
 72
     1
 10
466.3551572215838
 20
-642.750094936042
 11
465.3551572215838
 21
-642.750094936042
 72
     1
 10
465.3551572215838
 20
-642.750094936042
 11
465.3551572215838
 21
-641.2380648020234
 72
     1
 10
465.3551572215838
 20
-641.2380648020234
 11
466.1885830704206
 21
-641.7188874071215
 72
     2
 10
466.3551572215838
 20
-641.4301588784386
 40
0.3333333333333709
 50
240.0183606311493
 51
420.0183606311565
 73
     1
 72
     1
 10
466.5217313727469
 20
-641.1414303497559
 11
465.1883980394136
 21
-640.372199580525
 97
       14
330
BC
330
93
330
92
330
91
330
BB
330
90
330
8F
330
8E
330
BA
330
8D
330
C5
330
AB
330
C6
330
94
 75
     0
 76
     1
 98
        1
 10
0.0
 20
0.0
  0
HATCH
  5
D7
330
75
100
AcDbEntity
  8
1
  6
Continuous
 62
     7
100
AcDbHatch
 10
0.0
 20
0.0
 30
0.0
210
0.0
220
0.0
230
1.0
  2
SOLID
 70
     1
 71
     1
 91
        1
 92
        1
 93
        5
 72
     2
 10
458.3551572215838
 20
-641.4301588784386
 40
0.3333333333333144
 50
0.0
 51
180.0
 73
     1
 72
     1
 10
458.0218238882504
 20
-641.4301588784386
 11
458.0218238882504
 21
-644.7366976603121
 72
     2
 10
458.3551572215838
 20
-644.7366976603121
 40
0.3333333333333712
 50
180.0
 51
360.0
 73
     1
 72
     1
 10
458.6884905549171
 20
-644.7366976603121
 11
458.6884905549171
 21
-644.544176352112
 72
     1
 10
458.6884905549171
 20
-644.544176352112
 11
458.6884905549171
 21
-641.4301588784386
 97
        5
330
BE
330
95
330
BD
330
96
330
97
 75
     0
 76
     1
 98
        1
 10
0.0
 20
0.0
  0
HATCH
  5
D8
330
75
100
AcDbEntity
  8
1
  6
Continuous
 62
     7
100
AcDbHatch
 10
0.0
 20
0.0
 30
0.0
210
0.0
220
0.0
230
1.0
  2
SOLID
 70
     1
 71
     1
 91
        1
 92
        1
 93
        7
 72
     2
 10
459.6884905549171
 20
-640.6609281092079
 40
0.3333333333333144
 50
0.0
 51
180.0
 73
     1
 72
     1
 10
459.3551572215838
 20
-640.6609281092079
 11
459.3551572215838
 21
-645.3134071213427
 72
     2
 10
460.0218238882504
 20
-645.3134071213426
 40
0.6666666666666288
 50
180.0000000000097
 51
240.0183606311578
 73
     1
 72
     1
 10
459.6886755859241
 20
-645.8908641787084
 11
461.8552497370873
 21
-647.1408108043795
 72
     2
 10
462.0218238882504
 20
-646.8520822756966
 40
0.3333333333333141
 50
240.0183606311663
 51
420.0183606311578
 73
     1
 72
     1
 10
462.1883980394136
 20
-646.5633537470137
 11
460.0218238882504
 21
-645.3134071213426
 72
     1
 10
460.0218238882504
 20
-645.3134071213426
 11
460.0218238882504
 21
-640.6609281092079
 97
        7
330
C0
330
9B
330
C9
330
98
330
BF
330
99
330
9A
 75
     0
 76
     1
 98
        1
 10
0.0
 20
0.0
  0
HATCH
  5
D9
330
75
100
AcDbEntity
  8
1
  6
Continuous
 62
     7
100
AcDbHatch
 10
0.0
 20
0.0
 30
0.0
210
0.0
220
0.0
230
1.0
  2
SOLID
 70
     1
 71
     1
 91
        1
 92
        1
 93
       16
 72
     2
 10
463.7568576757751
 20
-639.8522109573407
 40
0.2649662124753149
 50
210.0000000000305
 51
360.0
 73
     0
 72
     1
 10
464.0218238882504
 20
-639.8522109573407
 11
464.0218238882504
 21
-646.2751591987735
 72
     2
 10
463.6884905549172
 20
-646.2751591987735
 40
0.3333333333334281
 50
0.0
 51
180.0
 73
     0
 72
     1
 10
463.3551572215838
 20
-646.2751591987735
 11
463.3551572215838
 21
-643.0834282693753
 72
     1
 10
463.3551572215838
 20
-643.0834282693753
 11
463.3551572215838
 21
-641.3513774618065
 72
     1
 10
463.3551572215838
 20
-641.3513774618065
 11
462.4994947888812
 21
-642.8334282693753
 72
     2
 10
462.3551572215838
 20
-642.750094936042
 40
0.1666666666666096
 50
29.99999999998124
 51
150.0000000000188
 73
     0
 72
     1
 10
462.2108196542864
 20
-642.8334282693753
 11
461.3551572215838
 21
-641.3513774618065
 72
     1
 10
461.3551572215838
 20
-641.3513774618065
 11
461.3551572215838
 21
-643.0834282693753
 72
     1
 10
461.3551572215838
 20
-643.0834282693753
 11
461.3551572215838
 21
-644.7358431967424
 72
     2
 10
461.0218238882504
 20
-644.7358431967424
 40
0.3333333333333144
 50
0.0
 51
180.0
 73
     0
 72
     1
 10
460.6884905549171
 20
-644.7358431967424
 11
460.6884905549171
 21
-643.0834282693753
 72
     1
 10
460.6884905549171
 20
-643.0834282693753
 11
460.6884905549171
 21
-639.8522109573407
 72
     2
 10
460.9534567673924
 20
-639.8522109573407
 40
0.2649662124752827
 50
180.0
 51
329.9999999999818
 73
     0
 72
     1
 10
461.1829242385405
 20
-639.719727851103
 11
462.3551572215838
 21
-641.750094936042
 72
     1
 10
462.3551572215838
 20
-641.750094936042
 11
463.5273902046271
 21
-639.719727851103
 97
       16
330
A1
330
C4
330
A2
330
A0
330
C3
330
9F
330
A7
330
A8
330
CA
330
A9
330
AA
330
9E
330
C2
330
9D
330
C1
330
9C
 75
     0
 76
     1
 98
        1
 10
0.0
 20
0.0
  0
ENDBLK
  5
77
330
75
100
AcDbEntity
  8
0
100
AcDbBlockEnd
  0
BLOCK
  5
7A
330
78
100
AcDbEntity
  8
0
100
AcDbBlockBegin
  2
A4
 70
     0
 10
0.0
 20
0.0
 30
0.0
  3
A4
  1
A4
  0
INSERT
  5
79
330
78
100
AcDbEntity
  8
1
100
AcDbBlockReference
  2
_formato_A4
 10
0.0
 20
0.0
 30
0.0
 41
2.0
 42
2.0
 43
2.0
  0
ENDBLK
  5
7B
330
78
100
AcDbEntity
  8
0
100
AcDbBlockEnd
  0
BLOCK
  5
19A
330
190
100
AcDbEntity
  8
0
100
AcDbBlockBegin
  2
*D4
 70
     1
 10
0.0
 20
0.0
 30
0.0
  3
*D4
  1
*D4
  0
LINE
  5
191
330
190
100
AcDbEntity
  8
1
  6
Continuous
 62
     7
100
AcDbLine
 10
-317.7184072556391
 20
330.5658639918232
 30
0.0
 11
-309.2331258814004
 21
339.0511453660616
 31
0.0
  0
LINE
  5
192
330
190
100
AcDbEntity
  8
1
  6
Continuous
 62
     7
100
AcDbLine
 10
-309.2331258814004
 20
339.0511453660616
 30
0.0
 11
-306.0511453660609
 21
342.2331258814011
 31
0.0
  0
LINE
  5
193
330
190
100
AcDbEntity
  8
1
  6
Continuous
 62
     7
100
AcDbLine
 10
-306.0511453660609
 20
342.2331258814011
 30
0.0
 11
-297.5658639918222
 21
350.7184072556395
 31
0.0
  0
LINE
  5
194
330
190
100
AcDbEntity
  8
1
  6
Continuous
 62
     7
100
AcDbLine
 10
-292.13663290559
 20
321.9546523902505
 30
0.0
 11
-310.6473394437735
 21
340.4653589284347
 31
0.0
  0
LINE
  5
195
330
190
100
AcDbEntity
  8
1
  6
Continuous
 62
     7
100
AcDbLine
 10
-288.9546523902505
 20
325.13663290559
 30
0.0
 11
-307.4653589284339
 21
343.6473394437742
 31
0.0
  0
SOLID
  5
196
330
190
100
AcDbEntity
  8
1
 62
     7
100
AcDbTrace
 10
-312.9172123256945
 20
334.2499504361172
 30
0.0
 11
-314.0343208113449
 21
335.3670589217675
 31
0.0
 12
-309.2331258814004
 22
339.0511453660616
 32
0.0
 13
-309.2331258814004
 23
339.0511453660616
 33
0.0
  0
SOLID
  5
197
330
190
100
AcDbEntity
  8
1
 62
     7
100
AcDbTrace
 10
-302.3670589217668
 20
347.0343208113455
 30
0.0
 11
-301.2499504361164
 21
345.9172123256952
 31
0.0
 12
-306.0511453660609
 22
342.2331258814011
 32
0.0
 13
-306.0511453660609
 23
342.2331258814011
 33
0.0
  0
MTEXT
  5
199
330
190
100
AcDbEntity
  8
1
 62
     7
100
AcDbMText
 10
-314.8192694527741
 20
339.9703841816042
 30
0.0
 40
6.0
 41
0.0
 71
     7
 72
     1
  1
4,5
  7
CONVERTER_13
 11
0.7071067811865595
 21
0.7071067811865357
 31
0.0
 73
     1
 44
0.60024009603842
  0
ENDBLK
  5
19B
330
190
100
AcDbEntity
  8
0
100
AcDbBlockEnd
  0
BLOCK
  5
1A5
330
19E
100
AcDbEntity
  8
0
100
AcDbBlockBegin
  2
*D5
 70
     1
 10
0.0
 20
0.0
 30
0.0
  3
*D5
  1
*D5
  0
LINE
  5
19F
330
19E
100
AcDbEntity
  8
1
  6
Continuous
 62
     7
100
AcDbLine
 10
-313.5000000000001
 20
320.5
 30
0.0
 11
-313.5000000000001
 21
199.5000000000001
 31
0.0
  0
LINE
  5
1A0
330
19E
100
AcDbEntity
  8
1
  6
Continuous
 62
     7
100
AcDbLine
 10
-294.9000000000001
 20
320.5
 30
0.0
 11
-315.5000000000001
 21
320.5
 31
0.0
  0
LINE
  5
1A1
330
19E
100
AcDbEntity
  8
1
  6
Continuous
 62
     7
100
AcDbLine
 10
-294.9
 20
199.5000000000001
 30
0.0
 11
-315.5000000000001
 21
199.5000000000001
 31
0.0
  0
SOLID
  5
1A2
330
19E
100
AcDbEntity
  8
1
 62
     7
100
AcDbTrace
 10
-312.7100850144757
 20
314.5
 30
0.0
 11
-314.2899149855245
 21
314.5
 31
0.0
 12
-313.5000000000001
 22
320.5
 32
0.0
 13
-313.5000000000001
 23
320.5
 33
0.0
  0
SOLID
  5
1A3
330
19E
100
AcDbEntity
  8
1
 62
     7
100
AcDbTrace
 10
-314.2899149855245
 20
205.5000000000001
 30
0.0
 11
-312.7100850144757
 21
205.5000000000001
 31
0.0
 12
-313.5000000000001
 22
199.5000000000001
 32
0.0
 13
-313.5000000000001
 23
199.5000000000001
 33
0.0
  0
MTEXT
  5
1A4
330
19E
100
AcDbEntity
  8
1
 62
     7
100
AcDbMText
 10
-317.5000000000001
 20
254.6000000000001
 30
0.0
 40
6.0
 41
0.0
 71
     7
 72
     1
  1
121
  7
CONVERTER_13
 11
0.0
 21
1.0
 31
0.0
 73
     1
 44
0.60024009603842
  0
ENDBLK
  5
1A6
330
19E
100
AcDbEntity
  8
0
100
AcDbBlockEnd
  0
BLOCK
  5
1B0
330
1A9
100
AcDbEntity
  8
0
100
AcDbBlockBegin
  2
*D6
 70
     1
 10
0.0
 20
0.0
 30
0.0
  3
*D6
  1
*D6
  0
LINE
  5
1AA
330
1A9
100
AcDbEntity
  8
1
  6
Continuous
 62
     7
100
AcDbLine
 10
-287.5000000000001
 20
346.5
 30
0.0
 11
-188.5
 21
346.5
 31
0.0
  0
LINE
  5
1AB
330
1A9
100
AcDbEntity
  8
1
  6
Continuous
 62
     7
100
AcDbLine
 10
-287.5000000000001
 20
327.9000000000002
 30
0.0
 11
-287.5000000000001
 21
348.5
 31
0.0
  0
LINE
  5
1AC
330
1A9
100
AcDbEntity
  8
1
  6
Continuous
 62
     7
100
AcDbLine
 10
-188.5
 20
327.9000000000001
 30
0.0
 11
-188.5
 21
348.5
 31
0.0
  0
SOLID
  5
1AD
330
1A9
100
AcDbEntity
  8
1
 62
     7
100
AcDbTrace
 10
-281.5000000000001
 20
347.2899149855244
 30
0.0
 11
-281.5000000000001
 21
345.7100850144756
 31
0.0
 12
-287.5000000000001
 22
346.5
 32
0.0
 13
-287.5000000000001
 23
346.5
 33
0.0
  0
SOLID
  5
1AE
330
1A9
100
AcDbEntity
  8
1
 62
     7
100
AcDbTrace
 10
-194.5
 20
345.7100850144756
 30
0.0
 11
-194.5
 21
347.2899149855244
 31
0.0
 12
-188.5
 22
346.5
 32
0.0
 13
-188.5
 23
346.5
 33
0.0
  0
MTEXT
  5
1AF
330
1A9
100
AcDbEntity
  8
1
 62
     7
100
AcDbMText
 10
-242.5
 20
350.5
 30
0.0
 40
6.0
 41
0.0
 71
     7
 72
     1
  1
99
  7
CONVERTER_13
 11
0.9999999999970619
 21
2.424068405545306E-6
 31
0.0
 73
     1
 44
0.60024009603842
  0
ENDBLK
  5
1B1
330
1A9
100
AcDbEntity
  8
0
100
AcDbBlockEnd
  0
BLOCK
  5
1BB
330
1B4
100
AcDbEntity
  8
0
100
AcDbBlockBegin
  2
*D7
 70
     1
 10
0.0
 20
0.0
 30
0.0
  3
*D7
  1
*D7
  0
LINE
  5
1B5
330
1B4
100
AcDbEntity
  8
1
  6
Continuous
 62
     7
100
AcDbLine
 10
-293.5000000000001
 20
173.5
 30
0.0
 11
-182.5
 21
173.5
 31
0.0
  0
LINE
  5
1B6
330
1B4
100
AcDbEntity
  8
1
  6
Continuous
 62
     7
100
AcDbLine
 10
-293.5000000000001
 20
192.5000000000001
 30
0.0
 11
-293.5000000000001
 21
171.5
 31
0.0
  0
LINE
  5
1B7
330
1B4
100
AcDbEntity
  8
1
  6
Continuous
 62
     7
100
AcDbLine
 10
-182.5
 20
192.5
 30
0.0
 11
-182.5
 21
171.5
 31
0.0
  0
SOLID
  5
1B8
330
1B4
100
AcDbEntity
  8
1
 62
     7
100
AcDbTrace
 10
-287.5000000000001
 20
174.2899149855244
 30
0.0
 11
-287.5000000000001
 21
172.7100850144756
 31
0.0
 12
-293.5000000000001
 22
173.5
 32
0.0
 13
-293.5000000000001
 23
173.5
 33
0.0
  0
SOLID
  5
1B9
330
1B4
100
AcDbEntity
  8
1
 62
     7
100
AcDbTrace
 10
-188.5
 20
172.7100850144756
 30
0.0
 11
-188.5
 21
174.2899149855244
 31
0.0
 12
-182.5
 22
173.5
 32
0.0
 13
-182.5
 23
173.5
 33
0.0
  0
MTEXT
  5
1BA
330
1B4
100
AcDbEntity
  8
1
 62
     7
100
AcDbMText
 10
-242.5
 20
177.5
 30
0.0
 40
6.0
 41
0.0
 71
     7
 72
     1
  1
111
  7
CONVERTER_13
 11
0.9999999999970619
 21
2.424068405545306E-6
 31
0.0
 73
     1
 44
0.60024009603842
  0
ENDBLK
  5
1BC
330
1B4
100
AcDbEntity
  8
0
100
AcDbBlockEnd
  0
BLOCK
  5
1C8
330
1BF
100
AcDbEntity
  8
0
100
AcDbBlockBegin
  2
*D8
 70
     1
 10
0.0
 20
0.0
 30
0.0
  3
*D8
  1
*D8
  0
LINE
  5
1C0
330
1BF
100
AcDbEntity
  8
1
  6
Continuous
 62
     7
100
AcDbLine
 10
-162.5000000000004
 20
475.0675634067807
 30
0.0
 11
-162.5000000000004
 21
457.9
 31
0.0
  0
LINE
  5
1C1
330
1BF
100
AcDbEntity
  8
1
  6
Continuous
 62
     7
100
AcDbLine
 10
-162.5000000000004
 20
457.9
 30
0.0
 11
-162.5000000000004
 21
456.4
 31
0.0
  0
LINE
  5
1C2
330
1BF
100
AcDbEntity
  8
1
  6
Continuous
 62
     7
100
AcDbLine
 10
-162.5000000000004
 20
456.4
 30
0.0
 11
-162.5000000000004
 21
444.4
 31
0.0
  0
LINE
  5
1C3
330
1BF
100
AcDbEntity
  8
1
  6
Continuous
 62
     7
100
AcDbLine
 10
-181.5000000000001
 20
457.9
 30
0.0
 11
-160.5000000000004
 21
457.9
 31
0.0
  0
LINE
  5
1C4
330
1BF
100
AcDbEntity
  8
1
  6
Continuous
 62
     7
100
AcDbLine
 10
-181.5000000000001
 20
456.4
 30
0.0
 11
-160.5000000000004
 21
456.4
 31
0.0
  0
SOLID
  5
1C5
330
1BF
100
AcDbEntity
  8
1
 62
     7
100
AcDbTrace
 10
-163.2899149855248
 20
463.9
 30
0.0
 11
-161.710085014476
 21
463.9
 31
0.0
 12
-162.5000000000004
 22
457.9
 32
0.0
 13
-162.5000000000004
 23
457.9
 33
0.0
  0
SOLID
  5
1C6
330
1BF
100
AcDbEntity
  8
1
 62
     7
100
AcDbTrace
 10
-161.710085014476
 20
450.4
 30
0.0
 11
-163.2899149855248
 21
450.4
 31
0.0
 12
-162.5000000000004
 22
456.4
 32
0.0
 13
-162.5000000000004
 23
456.4
 33
0.0
  0
MTEXT
  5
1C7
330
1BF
100
AcDbEntity
  8
1
 62
     7
100
AcDbMText
 10
-167.1000000000004
 20
465.7675634067807
 30
0.0
 40
6.0
 41
0.0
 71
     7
 72
     1
  1
1,5
  7
CONVERTER_13
 11
0.0
 21
1.0
 31
0.0
 73
     1
 44
0.60024009603842
  0
ENDBLK
  5
1C9
330
1BF
100
AcDbEntity
  8
0
100
AcDbBlockEnd
  0
BLOCK
  5
1D3
330
1CC
100
AcDbEntity
  8
0
100
AcDbBlockBegin
  2
*D9
 70
     1
 10
0.0
 20
0.0
 30
0.0
  3
*D9
  1
*D9
  0
LINE
  5
1CD
330
1CC
100
AcDbEntity
  8
1
  6
Continuous
 62
     7
100
AcDbLine
 10
-162.5
 20
326.4999999999999
 30
0.0
 11
-162.5
 21
193.4999999999999
 31
0.0
  0
LINE
  5
1CE
330
1CC
100
AcDbEntity
  8
1
  6
Continuous
 62
     7
100
AcDbLine
 10
-181.5000000000001
 20
326.4999999999999
 30
0.0
 11
-160.5
 21
326.4999999999999
 31
0.0
  0
LINE
  5
1CF
330
1CC
100
AcDbEntity
  8
1
  6
Continuous
 62
     7
100
AcDbLine
 10
-181.4999999999999
 20
193.4999999999999
 30
0.0
 11
-160.5
 21
193.4999999999999
 31
0.0
  0
SOLID
  5
1D0
330
1CC
100
AcDbEntity
  8
1
 62
     7
100
AcDbTrace
 10
-161.7100850144756
 20
320.4999999999999
 30
0.0
 11
-163.2899149855244
 21
320.4999999999999
 31
0.0
 12
-162.5
 22
326.4999999999999
 32
0.0
 13
-162.5
 23
326.4999999999999
 33
0.0
  0
SOLID
  5
1D1
330
1CC
100
AcDbEntity
  8
1
 62
     7
100
AcDbTrace
 10
-163.2899149855244
 20
199.4999999999999
 30
0.0
 11
-161.7100850144756
 21
199.4999999999999
 31
0.0
 12
-162.5
 22
193.4999999999999
 32
0.0
 13
-162.5
 23
193.4999999999999
 33
0.0
  0
MTEXT
  5
1D2
330
1CC
100
AcDbEntity
  8
1
 62
     7
100
AcDbMText
 10
-166.5
 20
253.6999999999999
 30
0.0
 40
6.0
 41
0.0
 71
     7
 72
     1
  1
133
  7
CONVERTER_13
 11
0.0
 21
1.0
 31
0.0
 73
     1
 44
0.60024009603842
  0
ENDBLK
  5
1D4
330
1CC
100
AcDbEntity
  8
0
100
AcDbBlockEnd
  0
ENDSEC
  0
SECTION
  2
ENTITIES
  0
INSERT
  5
7C
330
1F
100
AcDbEntity
  8
1
100
AcDbBlockReference
  2
_dummy_frame
 10
154.497078881098
 20
282.570441676104
 30
0.0
  0
INSERT
  5
7D
330
1F
100
AcDbEntity
  8
0
100
AcDbBlockReference
  2
A4
 10
0.0
 20
0.0
 30
0.0
  0
LINE
  5
DA
330
1F
100
AcDbEntity
  8
0
  6
Continuous
 62
     7
100
AcDbLine
 10
-30.53033008588992
 20
564.0000000000002
 30
0.0
 11
-69.7747564417433
 21
541.2863231741767
 31
0.0
  0
LINE
  5
DB
330
1F
100
AcDbEntity
  8
0
  6
Continuous
 62
     7
100
AcDbLine
 10
-66.85880872758611
 20
492.1788957889991
 30
0.0
 11
-68.5124032970015
 21
489.3147903428394
 31
0.0
  0
LINE
  5
DC
330
1F
100
AcDbEntity
  8
0
  6
Continuous
 62
     7
100
AcDbLine
 10
-67.38913881347594
 20
538.6183554901606
 30
0.0
 11
-68.5120881928396
 21
539.2634887702875
 31
0.0
  0
LINE
  5
DD
330
1F
100
AcDbEntity
  8
0
  6
Continuous
 62
     7
100
AcDbLine
 10
-68.51240329700147
 20
539.2614023153376
 30
0.0
 11
-66.85880872758605
 21
538.3114139114334
 31
0.0
  0
LINE
  5
DE
330
1F
100
AcDbEntity
  8
0
  6
Continuous
 62
     7
100
AcDbLine
 10
-69.24442635585339
 20
540.9793815954492
 30
0.0
 11
-69.24442635585339
 21
486.7494583692753
 31
0.0
  0
LINE
  5
DF
330
1F
100
AcDbEntity
  8
0
  6
Continuous
 62
     7
100
AcDbLine
 10
-67.38740329700153
 20
488.6684789832356
 30
0.0
 11
-67.91773338289144
 21
488.975420561963
 31
0.0
  0
LINE
  5
E0
330
1F
100
AcDbEntity
  8
0
  6
Continuous
 62
     7
100
AcDbLine
 10
-30.53033008588992
 20
564.0000000000002
 30
0.0
 11
-30.0
 21
563.6930584212728
 31
0.0
  0
LINE
  5
E1
330
1F
100
AcDbEntity
  8
0
  6
Continuous
 62
     7
100
AcDbLine
 10
-30.0
 20
563.6930584212728
 30
0.0
 11
-69.24442635585339
 21
540.9793815954492
 31
0.0
  0
LINE
  5
E2
330
1F
100
AcDbEntity
  8
0
  6
Continuous
 62
     7
100
AcDbLine
 10
-63.53453909777201
 20
541.9803668820937
 30
0.0
 11
-63.53453909777201
 21
541.0833305580518
 31
0.0
  0
LINE
  5
E3
330
1F
100
AcDbEntity
  8
0
  6
Continuous
 62
     7
100
AcDbLine
 10
-63.64060511494998
 20
541.9189785663483
 30
0.0
 11
-63.53453909777201
 21
541.9803668820937
 31
0.0
  0
LINE
  5
E4
330
1F
100
AcDbEntity
  8
0
  6
Continuous
 62
     7
100
AcDbLine
 10
-63.64060511494998
 20
541.0219422423063
 30
0.0
 11
-63.64060511494998
 21
541.9189785663483
 31
0.0
  0
LINE
  5
E5
330
1F
100
AcDbEntity
  8
0
  6
Continuous
 62
     7
100
AcDbLine
 10
-64.1603285991221
 20
540.2726213331325
 30
0.0
 11
-63.01481561359992
 21
540.9356151431837
 31
0.0
  0
LINE
  5
E6
330
1F
100
AcDbEntity
  8
0
  6
Continuous
 62
     7
100
AcDbLine
 10
-62.70368862987783
 20
541.4418825629614
 30
0.0
 11
-64.47145558284419
 21
540.4187439672035
 31
0.0
  0
LINE
  5
E7
330
1F
100
AcDbEntity
  8
0
  6
Continuous
 62
     7
100
AcDbLine
 10
-63.53453909777201
 20
541.0833305580518
 30
0.0
 11
-63.64060511494998
 21
541.1447188737973
 31
0.0
  0
LINE
  5
E8
330
1F
100
AcDbEntity
  8
0
  6
Continuous
 62
     7
100
AcDbLine
 10
-63.01481561359992
 20
540.9356151431837
 30
0.0
 11
-63.01481561359992
 21
540.813292008087
 31
0.0
  0
LINE
  5
E9
330
1F
100
AcDbEntity
  8
0
  6
Continuous
 62
     7
100
AcDbLine
 10
-63.01481561359992
 20
540.813292008087
 30
0.0
 11
-63.12048985788294
 21
540.8744535756352
 31
0.0
  0
LINE
  5
EA
330
1F
100
AcDbEntity
  8
0
  6
Continuous
 62
     7
100
AcDbLine
 10
-64.47145558284419
 20
540.5410671023001
 30
0.0
 11
-63.64060511494998
 21
541.0219422423063
 31
0.0
  0
LINE
  5
EB
330
1F
100
AcDbEntity
  8
0
  6
Continuous
 62
     7
100
AcDbLine
 10
-64.47145558284419
 20
540.4187439672035
 30
0.0
 11
-64.47145558284419
 21
540.5410671023001
 31
0.0
  0
LINE
  5
EC
330
1F
100
AcDbEntity
  8
0
  6
Continuous
 62
     7
100
AcDbLine
 10
-62.70368862987783
 20
541.564205698058
 30
0.0
 11
-62.70368862987783
 21
541.4418825629614
 31
0.0
  0
LINE
  5
ED
330
1F
100
AcDbEntity
  8
0
  6
Continuous
 62
     7
100
AcDbLine
 10
-62.70368862987783
 20
541.4418825629614
 30
0.0
 11
-62.80936287416085
 21
541.5030441305096
 31
0.0
  0
LINE
  5
EE
330
1F
100
AcDbEntity
  8
0
  6
Continuous
 62
     7
100
AcDbLine
 10
-63.53453909777201
 20
541.0833305580518
 30
0.0
 11
-62.70368862987783
 21
541.564205698058
 31
0.0
  0
LINE
  5
EF
330
1F
100
AcDbEntity
  8
0
  6
Continuous
 62
     7
100
AcDbLine
 10
-63.01481561359992
 20
540.813292008087
 30
0.0
 11
-64.1603285991221
 21
540.1502981980359
 31
0.0
  0
LINE
  5
F0
330
1F
100
AcDbEntity
  8
0
  6
Continuous
 62
     7
100
AcDbLine
 10
-63.84920161540003
 20
540.004175563965
 30
0.0
 11
-63.32594259732201
 21
540.3070245883093
 31
0.0
  0
LINE
  5
F1
330
1F
100
AcDbEntity
  8
0
  6
Continuous
 62
     7
100
AcDbLine
 10
-63.32594259732201
 20
540.1847014532126
 30
0.0
 11
-63.84920161540003
 21
539.8818524288683
 31
0.0
  0
LINE
  5
F2
330
1F
100
AcDbEntity
  8
0
  6
Continuous
 62
     7
100
AcDbLine
 10
-63.32594259732201
 20
540.1847014532126
 30
0.0
 11
-63.43161684160506
 21
540.2458630207609
 31
0.0
  0
LINE
  5
F3
330
1F
100
AcDbEntity
  8
0
  6
Continuous
 62
     7
100
AcDbLine
 10
-63.32594259732201
 20
540.3070245883093
 30
0.0
 11
-63.32594259732201
 21
540.1847014532126
 31
0.0
  0
LINE
  5
F4
330
1F
100
AcDbEntity
  8
0
  6
Continuous
 62
     7
100
AcDbLine
 10
-63.84920161540003
 20
539.8818524288683
 30
0.0
 11
-63.84920161540003
 21
540.004175563965
 31
0.0
  0
LINE
  5
F5
330
1F
100
AcDbEntity
  8
0
  6
Continuous
 62
     7
100
AcDbLine
 10
-64.1603285991221
 20
540.1502981980359
 30
0.0
 11
-64.1603285991221
 21
540.2726213331325
 31
0.0
  0
LINE
  5
F6
330
1F
100
AcDbEntity
  8
0
  6
Continuous
 62
     7
100
AcDbLine
 10
-64.54261500929343
 20
539.9122080304699
 30
0.0
 11
-64.29512763587815
 21
539.7689686270637
 31
0.0
  0
LINE
  5
F7
330
1F
100
AcDbEntity
  8
0
  6
Continuous
 62
     7
100
AcDbLine
 10
-63.12750395025915
 20
542.3572204416039
 30
0.0
 11
-62.88001657684387
 21
542.2139810381977
 31
0.0
  0
LINE
  5
F8
330
1F
100
AcDbEntity
  8
0
  6
Continuous
 62
     7
100
AcDbLine
 10
-69.7747564417433
 20
541.2863231741767
 30
0.0
 11
-69.24442635585339
 21
540.9793815954492
 31
0.0
  0
LINE
  5
F9
330
1F
100
AcDbEntity
  8
0
  6
Continuous
 62
     7
100
AcDbLine
 10
-65.73380872758605
 20
540.2599681015145
 30
0.0
 11
-67.38740329700147
 21
541.2099565054186
 31
0.0
  0
LINE
  5
FA
330
1F
100
AcDbEntity
  8
0
  6
Continuous
 62
     7
100
AcDbLine
 10
-31.26235314474189
 20
561.4346680264362
 30
0.0
 11
-32.91594771415726
 21
558.5705625802766
 31
0.0
  0
LINE
  5
FB
330
1F
100
AcDbEntity
  8
0
  6
Continuous
 62
     7
100
AcDbLine
 10
-31.85702305885195
 20
561.7740378073127
 30
0.0
 11
-33.51061762826731
 21
558.9099323611531
 31
0.0
  0
LINE
  5
FC
330
1F
100
AcDbEntity
  8
0
  6
Continuous
 62
     7
100
AcDbLine
 10
-32.38561762826731
 20
558.2636210015492
 30
0.0
 11
-30.73202305885195
 21
561.1277264477087
 31
0.0
  0
LINE
  5
FD
330
1F
100
AcDbEntity
  8
0
  6
Continuous
 62
     7
100
AcDbLine
 10
-30.73202305885195
 20
561.1277264477087
 30
0.0
 11
-31.26235314474189
 21
561.4346680264362
 31
0.0
  0
LINE
  5
FE
330
1F
100
AcDbEntity
  8
0
  6
Continuous
 62
     7
100
AcDbLine
 10
-32.38561762826731
 20
558.2636210015492
 30
0.0
 11
-32.91594771415726
 21
558.5705625802766
 31
0.0
  0
LINE
  5
FF
330
1F
100
AcDbEntity
  8
0
  6
Continuous
 62
     7
100
AcDbLine
 10
-67.38913881347594
 20
538.6183554901606
 30
0.0
 11
-66.85880872758605
 21
538.3114139114334
 31
0.0
  0
LINE
  5
100
330
1F
100
AcDbEntity
  8
0
  6
Continuous
 62
     7
100
AcDbLine
 10
-69.24442635585339
 20
486.7494583692753
 30
0.0
 11
-30.0
 21
509.4631351950989
 31
0.0
  0
LINE
  5
101
330
1F
100
AcDbEntity
  8
0
  6
Continuous
 62
     7
100
AcDbLine
 10
-32.38735314474184
 20
509.5395018638569
 30
0.0
 11
-33.51030252410629
 21
510.1846351439841
 31
0.0
  0
LINE
  5
102
330
1F
100
AcDbEntity
  8
0
  6
Continuous
 62
     7
100
AcDbLine
 10
-33.51061762826737
 20
510.1825486890336
 30
0.0
 11
-31.85702305885195
 21
509.2325602851295
 31
0.0
  0
LINE
  5
103
330
1F
100
AcDbEntity
  8
0
  6
Continuous
 62
     7
100
AcDbLine
 10
-32.38735314474184
 20
509.5395018638569
 30
0.0
 11
-31.85702305885195
 21
509.2325602851295
 31
0.0
  0
LINE
  5
104
330
1F
100
AcDbEntity
  8
0
  6
Continuous
 62
     7
100
AcDbLine
 10
-35.19678609339059
 20
510.8167875668904
 30
0.0
 11
-34.94929871997533
 21
510.6735481634843
 31
0.0
  0
LINE
  5
105
330
1F
100
AcDbEntity
  8
0
  6
Continuous
 62
     7
100
AcDbLine
 10
-35.08409775673135
 20
510.2922185925121
 30
0.0
 11
-35.08409775673135
 21
510.1698954574155
 31
0.0
  0
LINE
  5
106
330
1F
100
AcDbEntity
  8
0
  6
Continuous
 62
     7
100
AcDbLine
 10
-35.08409775673135
 20
510.1698954574155
 30
0.0
 11
-35.18977200101438
 21
510.2310570249638
 31
0.0
  0
LINE
  5
107
330
1F
100
AcDbEntity
  8
0
  6
Continuous
 62
     7
100
AcDbLine
 10
-36.54073772597565
 20
509.0006342275868
 30
0.0
 11
-34.77297077300926
 21
510.0237728233446
 31
0.0
  0
LINE
  5
108
330
1F
100
AcDbEntity
  8
0
  6
Continuous
 62
     7
100
AcDbLine
 10
-36.22961074225356
 20
509.5069016473645
 30
0.0
 11
-36.22961074225356
 21
509.6292247824611
 31
0.0
  0
LINE
  5
109
330
1F
100
AcDbEntity
  8
0
  6
Continuous
 62
     7
100
AcDbLine
 10
-35.60382124090347
 20
508.5235382241997
 30
0.0
 11
-35.70988725808144
 21
508.4621499084543
 31
0.0
  0
LINE
  5
10A
330
1F
100
AcDbEntity
  8
0
  6
Continuous
 62
     7
100
AcDbLine
 10
-35.60382124090347
 20
508.5235382241997
 30
0.0
 11
-35.70988725808144
 21
508.5849265399452
 31
0.0
  0
LINE
  5
10B
330
1F
100
AcDbEntity
  8
0
  6
Continuous
 62
     7
100
AcDbLine
 10
-35.70988725808144
 20
508.4621499084543
 30
0.0
 11
-35.70988725808144
 21
509.3591862324963
 31
0.0
  0
LINE
  5
10C
330
1F
100
AcDbEntity
  8
0
  6
Continuous
 62
     7
100
AcDbLine
 10
-35.39522474045342
 20
510.4383412265831
 30
0.0
 11
-35.91848375853144
 21
510.1354922022388
 31
0.0
  0
LINE
  5
10D
330
1F
100
AcDbEntity
  8
0
  6
Continuous
 62
     7
100
AcDbLine
 10
-35.91848375853144
 20
510.1354922022388
 30
0.0
 11
-35.91848375853144
 21
510.2578153373355
 31
0.0
  0
LINE
  5
10E
330
1F
100
AcDbEntity
  8
0
  6
Continuous
 62
     7
100
AcDbLine
 10
-35.91848375853144
 20
510.2578153373355
 30
0.0
 11
-35.39522474045342
 21
510.5606643616798
 31
0.0
  0
LINE
  5
10F
330
1F
100
AcDbEntity
  8
0
  6
Continuous
 62
     7
100
AcDbLine
 10
-35.39522474045342
 20
510.5606643616798
 30
0.0
 11
-35.39522474045342
 21
510.4383412265831
 31
0.0
  0
LINE
  5
110
330
1F
100
AcDbEntity
  8
0
  6
Continuous
 62
     7
100
AcDbLine
 10
-35.39522474045342
 20
510.4383412265831
 30
0.0
 11
-35.50089898473647
 21
510.4995027941314
 31
0.0
  0
LINE
  5
111
330
1F
100
AcDbEntity
  8
0
  6
Continuous
 62
     7
100
AcDbLine
 10
-35.70988725808144
 20
509.3591862324963
 30
0.0
 11
-36.54073772597565
 21
508.8783110924901
 31
0.0
  0
LINE
  5
112
330
1F
100
AcDbEntity
  8
0
  6
Continuous
 62
     7
100
AcDbLine
 10
-36.54073772597565
 20
508.8783110924901
 30
0.0
 11
-36.54073772597565
 21
509.0006342275868
 31
0.0
  0
LINE
  5
113
330
1F
100
AcDbEntity
  8
0
  6
Continuous
 62
     7
100
AcDbLine
 10
-35.70988725808144
 20
509.3591862324963
 30
0.0
 11
-35.81556150236449
 21
509.4203478000446
 31
0.0
  0
LINE
  5
114
330
1F
100
AcDbEntity
  8
0
  6
Continuous
 62
     7
100
AcDbLine
 10
-35.60382124090347
 20
509.4205745482418
 30
0.0
 11
-35.70949548518649
 21
509.4817361157901
 31
0.0
  0
LINE
  5
115
330
1F
100
AcDbEntity
  8
0
  6
Continuous
 62
     7
100
AcDbLine
 10
-35.60382124090347
 20
509.4205745482418
 30
0.0
 11
-35.60382124090347
 21
508.5235382241997
 31
0.0
  0
LINE
  5
116
330
1F
100
AcDbEntity
  8
0
  6
Continuous
 62
     7
100
AcDbLine
 10
-36.61189715242489
 20
508.3717751557564
 30
0.0
 11
-36.36440977900958
 21
508.2285357523504
 31
0.0
  0
LINE
  5
117
330
1F
100
AcDbEntity
  8
0
  6
Continuous
 62
     7
100
AcDbLine
 10
-34.77297077300926
 20
509.9014496882479
 30
0.0
 11
-35.60382124090347
 21
509.4205745482418
 31
0.0
  0
LINE
  5
118
330
1F
100
AcDbEntity
  8
0
  6
Continuous
 62
     7
100
AcDbLine
 10
-36.22961074225356
 20
509.6292247824611
 30
0.0
 11
-35.08409775673135
 21
510.2922185925121
 31
0.0
  0
LINE
  5
119
330
1F
100
AcDbEntity
  8
0
  6
Continuous
 62
     7
100
AcDbLine
 10
-35.08409775673135
 20
510.1698954574155
 30
0.0
 11
-36.22961074225356
 21
509.5069016473645
 31
0.0
  0
LINE
  5
11A
330
1F
100
AcDbEntity
  8
0
  6
Continuous
 62
     7
100
AcDbLine
 10
-34.77297077300926
 20
510.0237728233446
 30
0.0
 11
-34.77297077300926
 21
509.9014496882479
 31
0.0
  0
LINE
  5
11B
330
1F
100
AcDbEntity
  8
0
  6
Continuous
 62
     7
100
AcDbLine
 10
-34.77297077300926
 20
509.9014496882479
 30
0.0
 11
-34.87864501729234
 21
509.9626112557962
 31
0.0
  0
LINE
  5
11C
330
1F
100
AcDbEntity
  8
0
  6
Continuous
 62
     7
100
AcDbLine
 10
-66.26413881347602
 20
491.8395260081226
 30
0.0
 11
-67.91773338289144
 21
488.975420561963
 31
0.0
  0
LINE
  5
11D
330
1F
100
AcDbEntity
  8
0
  6
Continuous
 62
     7
100
AcDbLine
 10
-67.38740329700153
 20
488.6684789832356
 30
0.0
 11
-65.73380872758611
 21
491.5325844293952
 31
0.0
  0
LINE
  5
11E
330
1F
100
AcDbEntity
  8
0
  6
Continuous
 62
     7
100
AcDbLine
 10
-65.73380872758611
 20
491.5325844293952
 30
0.0
 11
-66.26413881347602
 21
491.8395260081226
 31
0.0
  0
LINE
  5
11F
330
1F
100
AcDbEntity
  8
0
  6
Continuous
 62
     7
100
AcDbLine
 10
-30.0
 20
509.4631351950989
 30
0.0
 11
-30.0
 21
563.6930584212728
 31
0.0
  0
LINE
  5
120
330
1F
100
AcDbEntity
  8
0
  6
Continuous
 62
     7
100
AcDbLine
 10
-30.73202305885201
 20
511.1811144752105
 30
0.0
 11
-32.38561762826737
 21
512.1311028791147
 31
0.0
  0
LINE
  5
121
330
1F
100
AcDbEntity
  8
0
  6
Continuous
 62
     7
100
AcDbLine
 10
-69.7747564417433
 20
487.0563999480026
 30
0.0
 11
-69.24442635585339
 21
486.7494583692753
 31
0.0
  0
LINE
  5
122
330
1F
100
AcDbEntity
  8
0
  6
Continuous
 62
     7
100
AcDbLine
 10
-69.7747564417433
 20
541.2863231741767
 30
0.0
 11
-69.7747564417433
 21
487.0563999480026
 31
0.0
  0
LINE
  5
123
330
1F
100
AcDbEntity
  8
1
  6
DOT_CENTER
 62
     7
100
AcDbLine
 10
-188.4999999999999
 20
326.9000000000002
 30
0.0
 11
-188.4999999999999
 21
314.0999999999999
 31
0.0
  0
LINE
  5
124
330
1F
100
AcDbEntity
  8
1
  6
DOT_CENTER
 62
     7
100
AcDbLine
 10
-182.0999999999998
 20
320.5
 30
0.0
 11
-194.9000000000002
 21
320.5
 31
0.0
  0
LINE
  5
125
330
1F
100
AcDbEntity
  8
1
  6
DOT_CENTER
 62
     7
100
AcDbLine
 10
-267.5000000000001
 20
323.36
 30
0.0
 11
-267.5000000000001
 21
313.64
 31
0.0
  0
LINE
  5
126
330
1F
100
AcDbEntity
  8
1
  6
DOT_CENTER
 62
     7
100
AcDbLine
 10
-262.6399999999999
 20
318.5
 30
0.0
 11
-272.3600000000001
 21
318.5
 31
0.0
  0
LINE
  5
127
330
1F
100
AcDbEntity
  8
1
  6
DOT_CENTER
 62
     7
100
AcDbLine
 10
-287.5000000000001
 20
326.9000000000002
 30
0.0
 11
-287.5000000000001
 21
314.0999999999999
 31
0.0
  0
LINE
  5
128
330
1F
100
AcDbEntity
  8
1
  6
DOT_CENTER
 62
     7
100
AcDbLine
 10
-281.0999999999999
 20
320.5
 30
0.0
 11
-293.9000000000001
 21
320.5
 31
0.0
  0
LINE
  5
129
330
1F
100
AcDbEntity
  8
1
  6
DOT_CENTER
 62
     7
100
AcDbLine
 10
-188.4999999999999
 20
205.9000000000002
 30
0.0
 11
-188.4999999999999
 21
193.1
 31
0.0
  0
LINE
  5
12A
330
1F
100
AcDbEntity
  8
1
  6
DOT_CENTER
 62
     7
100
AcDbLine
 10
-182.0999999999999
 20
199.5000000000001
 30
0.0
 11
-194.9
 21
199.5000000000001
 31
0.0
  0
LINE
  5
12B
330
1F
100
AcDbEntity
  8
1
  6
DOT_CENTER
 62
     7
100
AcDbLine
 10
-208.4999999999999
 20
206.36
 30
0.0
 11
-208.4999999999999
 21
196.6400000000002
 31
0.0
  0
LINE
  5
12C
330
1F
100
AcDbEntity
  8
1
  6
DOT_CENTER
 62
     7
100
AcDbLine
 10
-203.64
 20
201.5000000000001
 30
0.0
 11
-213.36
 21
201.5000000000001
 31
0.0
  0
LINE
  5
12D
330
1F
100
AcDbEntity
  8
1
  6
DOT_CENTER
 62
     7
100
AcDbLine
 10
-287.5000000000001
 20
205.9000000000001
 30
0.0
 11
-287.5000000000001
 21
193.1
 31
0.0
  0
LINE
  5
12E
330
1F
100
AcDbEntity
  8
1
  6
DOT_CENTER
 62
     7
100
AcDbLine
 10
-281.1
 20
199.5000000000001
 30
0.0
 11
-293.8999999999999
 21
199.5000000000001
 31
0.0
  0
LINE
  5
12F
330
1F
100
AcDbEntity
  8
1
  6
Continuous
 62
     7
100
AcDbLine
 10
-293.5000000000001
 20
193.5000000000001
 30
0.0
 11
-293.5000000000001
 21
326.5
 31
0.0
  0
LINE
  5
130
330
1F
100
AcDbEntity
  8
1
  6
Continuous
 62
     7
100
AcDbLine
 10
-182.5000000000001
 20
326.5
 30
0.0
 11
-182.4999999999999
 21
193.4999999999999
 31
0.0
  0
LINE
  5
131
330
1F
100
AcDbEntity
  8
1
  6
Continuous
 62
     7
100
AcDbLine
 10
-196.0968481305139
 20
201.5
 30
0.0
 11
-198.5000000000001
 21
201.5
 31
0.0
  0
LINE
  5
132
330
1F
100
AcDbEntity
  8
1
  6
Continuous
 62
     7
100
AcDbLine
 10
-196.9449108050823
 20
202.5600783432105
 30
0.0
 11
-200.0673233796293
 21
202.5600783432105
 31
0.0
  0
LINE
  5
133
330
1F
100
AcDbEntity
  8
1
  6
Continuous
 62
     7
100
AcDbLine
 10
-197.7929734796506
 20
203.6201566864211
 30
0.0
 11
-199.2192607050612
 21
203.6201566864211
 31
0.0
  0
LINE
  5
134
330
1F
100
AcDbEntity
  8
1
  6
Continuous
 62
     7
100
AcDbLine
 10
-198.5000000000001
 20
199.2414042682244
 30
0.0
 11
-198.5000000000001
 21
201.5
 31
0.0
  0
LINE
  5
135
330
1F
100
AcDbEntity
  8
1
  6
Continuous
 62
     7
100
AcDbLine
 10
-198.5000000000001
 20
201.5
 30
0.0
 11
-200.9153860541977
 21
201.5
 31
0.0
  0
LINE
  5
136
330
1F
100
AcDbEntity
  8
1
  6
Continuous
 62
     7
100
AcDbLine
 10
-277.4999999999998
 20
318.5
 30
0.0
 11
-275.0846139458022
 21
318.5
 31
0.0
  0
LINE
  5
137
330
1F
100
AcDbEntity
  8
1
  6
Continuous
 62
     7
100
AcDbLine
 10
-277.4999999999998
 20
320.7585957317756
 30
0.0
 11
-277.4999999999998
 21
318.5
 31
0.0
  0
LINE
  5
138
330
1F
100
AcDbEntity
  8
1
  6
Continuous
 62
     7
100
AcDbLine
 10
-278.2070265203494
 20
316.3798433135789
 30
0.0
 11
-276.7807392949388
 21
316.3798433135789
 31
0.0
  0
LINE
  5
139
330
1F
100
AcDbEntity
  8
1
  6
Continuous
 62
     7
100
AcDbLine
 10
-279.0550891949177
 20
317.4399216567894
 30
0.0
 11
-275.9326766203707
 21
317.4399216567894
 31
0.0
  0
LINE
  5
13A
330
1F
100
AcDbEntity
  8
1
  6
Continuous
 62
     7
100
AcDbLine
 10
-279.9031518694861
 20
318.5
 30
0.0
 11
-277.4999999999998
 21
318.5
 31
0.0
  0
LINE
  5
13B
330
1F
100
AcDbEntity
  8
1
  6
Continuous
 62
     7
100
AcDbLine
 10
-293.5000000000001
 20
326.5
 30
0.0
 11
-182.5000000000001
 21
326.5
 31
0.0
  0
LINE
  5
13C
330
1F
100
AcDbEntity
  8
1
  6
Continuous
 62
     7
100
AcDbLine
 10
-182.4999999999999
 20
193.4999999999999
 30
0.0
 11
-293.5000000000001
 21
193.5000000000001
 31
0.0
  0
LINE
  5
13D
330
1F
100
AcDbEntity
  8
1
  6
Continuous
 62
     7
100
AcDbLine
 10
-288.2475456090639
 20
324.4295261244034
 30
0.0
 11
-287.5000000000001
 21
323.6819805153394
 31
0.0
  0
LINE
  5
13E
330
1F
100
AcDbEntity
  8
1
  6
Continuous
 62
     7
100
AcDbLine
 10
-287.5000000000001
 20
323.6819805153394
 30
0.0
 11
-283.5704738755965
 21
319.752454390936
 31
0.0
  0
LINE
  5
13F
330
1F
100
AcDbEntity
  8
1
  6
Continuous
 62
     7
100
AcDbLine
 10
-286.7524543909361
 20
316.5704738755967
 30
0.0
 11
-291.4295261244034
 21
321.247545609064
 31
0.0
  0
LINE
  5
140
330
1F
100
AcDbEntity
  8
1
  6
Continuous
 62
     7
100
AcDbLine
 10
-184.5704738755966
 20
321.247545609064
 30
0.0
 11
-189.2475456090639
 21
316.5704738755967
 31
0.0
  0
LINE
  5
141
330
1F
100
AcDbEntity
  8
1
  6
Continuous
 62
     7
100
AcDbLine
 10
-192.4295261244035
 20
319.752454390936
 30
0.0
 11
-188.4999999999999
 21
323.6819805153394
 31
0.0
  0
LINE
  5
142
330
1F
100
AcDbEntity
  8
1
  6
Continuous
 62
     7
100
AcDbLine
 10
-188.4999999999999
 20
323.6819805153394
 30
0.0
 11
-187.752454390936
 21
324.4295261244034
 31
0.0
  0
LINE
  5
143
330
1F
100
AcDbEntity
  8
1
  6
Continuous
 62
     7
100
AcDbLine
 10
-187.752454390936
 20
195.5704738755966
 30
0.0
 11
-188.4999999999999
 21
196.3180194846606
 31
0.0
  0
LINE
  5
144
330
1F
100
AcDbEntity
  8
1
  6
Continuous
 62
     7
100
AcDbLine
 10
-188.4999999999999
 20
196.3180194846606
 30
0.0
 11
-192.4295261244035
 21
200.2475456090641
 31
0.0
  0
LINE
  5
145
330
1F
100
AcDbEntity
  8
1
  6
Continuous
 62
     7
100
AcDbLine
 10
-189.2475456090639
 20
203.4295261244034
 30
0.0
 11
-184.5704738755966
 21
198.752454390936
 31
0.0
  0
LINE
  5
146
330
1F
100
AcDbEntity
  8
1
  6
Continuous
 62
     7
100
AcDbLine
 10
-291.4295261244034
 20
198.752454390936
 30
0.0
 11
-286.7524543909361
 21
203.4295261244034
 31
0.0
  0
LINE
  5
147
330
1F
100
AcDbEntity
  8
1
  6
Continuous
 62
     7
100
AcDbLine
 10
-283.5704738755965
 20
200.2475456090641
 30
0.0
 11
-287.5000000000001
 21
196.3180194846606
 31
0.0
  0
LINE
  5
148
330
1F
100
AcDbEntity
  8
1
  6
Continuous
 62
     7
100
AcDbLine
 10
-287.5000000000001
 20
196.3180194846606
 30
0.0
 11
-288.2475456090639
 21
195.5704738755966
 31
0.0
  0
LINE
  5
149
330
1F
100
AcDbEntity
  8
1
  6
Continuous
 62
     7
100
AcDbLine
 10
-182.4999999999999
 20
456.4000000000001
 30
0.0
 11
-293.4999999999999
 21
456.4000000000001
 31
0.0
  0
LINE
  5
14A
330
1F
100
AcDbEntity
  8
1
  6
Continuous
 62
     7
100
AcDbLine
 10
-293.4999999999999
 20
456.4000000000001
 30
0.0
 11
-293.4999999999998
 21
457.9000000000001
 31
0.0
  0
LINE
  5
14B
330
1F
100
AcDbEntity
  8
1
  6
Continuous
 62
     7
100
AcDbLine
 10
-293.4999999999998
 20
457.9000000000001
 30
0.0
 11
-182.5
 21
457.9000000000001
 31
0.0
  0
LINE
  5
14C
330
1F
100
AcDbEntity
  8
1
  6
Continuous
 62
     7
100
AcDbLine
 10
-182.5
 20
457.9000000000001
 30
0.0
 11
-182.4999999999999
 21
456.4000000000001
 31
0.0
  0
LINE
  5
14D
330
1F
100
AcDbEntity
  8
1
  6
DOT_CENTER
 62
     7
100
AcDbLine
 10
-287.4999999999998
 20
460.7311955340781
 30
0.0
 11
-287.4999999999998
 21
453.631195534078
 31
0.0
  0
LINE
  5
14E
330
1F
100
AcDbEntity
  8
1
  6
DOT_CENTER
 62
     7
100
AcDbLine
 10
-267.4999999999998
 20
460.7311955340781
 30
0.0
 11
-267.4999999999998
 21
453.631195534078
 31
0.0
  0
LINE
  5
14F
330
1F
100
AcDbEntity
  8
1
  6
DOT_CENTER
 62
     7
100
AcDbLine
 10
-208.4999999999999
 20
460.7311955340781
 30
0.0
 11
-208.4999999999999
 21
453.631195534078
 31
0.0
  0
LINE
  5
150
330
1F
100
AcDbEntity
  8
1
  6
DOT_CENTER
 62
     7
100
AcDbLine
 10
-188.4999999999999
 20
460.7311955340781
 30
0.0
 11
-188.4999999999999
 21
453.631195534078
 31
0.0
  0
ARC
  5
151
330
1F
100
AcDbEntity
  8
1
  6
Continuous
 62
     7
100
AcDbCircle
 10
-287.5000000000001
 20
320.5
 30
0.0
 40
3.999999999999938
100
AcDbArc
 50
100.7711336721844
 51
135.0
  0
ARC
  5
152
330
1F
100
AcDbEntity
  8
1
  6
Continuous
 62
     7
100
AcDbCircle
 10
-287.5000000000001
 20
320.5
 30
0.0
 40
3.999999999999869
100
AcDbArc
 50
280.7711336721879
 51
349.2288663278129
  0
ARC
  5
153
330
1F
100
AcDbEntity
  8
1
  6
Continuous
 62
     7
100
AcDbCircle
 10
-287.5000000000001
 20
320.5
 30
0.0
 40
4.000000000000032
100
AcDbArc
 50
135.0
 51
169.2288663278121
  0
ARC
  5
154
330
1F
100
AcDbEntity
  8
1
  6
Continuous
 62
     7
100
AcDbCircle
 10
-188.4999999999999
 20
320.5
 30
0.0
 40
3.999999999999841
100
AcDbArc
 50
10.77113367218799
 51
79.22886632781398
  0
ARC
  5
155
330
1F
100
AcDbEntity
  8
1
  6
Continuous
 62
     7
100
AcDbCircle
 10
-188.4999999999999
 20
320.5
 30
0.0
 40
4.000000000000176
100
AcDbArc
 50
190.7711336721871
 51
259.2288663278117
  0
ARC
  5
156
330
1F
100
AcDbEntity
  8
1
  6
Continuous
 62
     7
100
AcDbCircle
 10
-188.4999999999999
 20
199.5000000000001
 30
0.0
 40
4.000000000000043
100
AcDbArc
 50
280.7711336721858
 51
314.9999999999989
  0
ARC
  5
157
330
1F
100
AcDbEntity
  8
1
  6
Continuous
 62
     7
100
AcDbCircle
 10
-188.4999999999999
 20
199.5000000000001
 30
0.0
 40
3.999999999999846
100
AcDbArc
 50
100.7711336721884
 51
169.2288663278129
  0
ARC
  5
158
330
1F
100
AcDbEntity
  8
1
  6
Continuous
 62
     7
100
AcDbCircle
 10
-188.4999999999999
 20
199.5000000000001
 30
0.0
 40
3.999999999999952
100
AcDbArc
 50
314.9999999999989
 51
349.2288663278104
  0
ARC
  5
159
330
1F
100
AcDbEntity
  8
1
  6
Continuous
 62
     7
100
AcDbCircle
 10
-287.5000000000001
 20
199.5000000000001
 30
0.0
 40
3.99999999999989
100
AcDbArc
 50
190.7711336721895
 51
225.0
  0
ARC
  5
15A
330
1F
100
AcDbEntity
  8
1
  6
Continuous
 62
     7
100
AcDbCircle
 10
-287.5000000000001
 20
199.5000000000001
 30
0.0
 40
4.000000000000147
100
AcDbArc
 50
10.77113367218716
 51
79.22886632781201
  0
ARC
  5
15B
330
1F
100
AcDbEntity
  8
1
  6
Continuous
 62
     7
100
AcDbCircle
 10
-287.5000000000001
 20
199.5000000000001
 30
0.0
 40
4.000000000000032
100
AcDbArc
 50
225.0
 51
259.2288663278158
  0
CIRCLE
  5
15C
330
1F
100
AcDbEntity
  8
1
  6
Continuous
 62
     7
100
AcDbCircle
 10
-267.5000000000001
 20
318.5
 30
0.0
 40
2.599999999999909
  0
CIRCLE
  5
15D
330
1F
100
AcDbEntity
  8
1
  6
Continuous
 62
     7
100
AcDbCircle
 10
-198.5061170923557
 20
201.5061170923558
 30
0.0
 40
3.011586202302681
  0
CIRCLE
  5
15E
330
1F
100
AcDbEntity
  8
1
  6
Continuous
 62
     7
100
AcDbCircle
 10
-277.4938829076443
 20
318.493882907644
 30
0.0
 40
3.011586202302794
  0
CIRCLE
  5
15F
330
1F
100
AcDbEntity
  8
1
  6
Continuous
 62
     7
100
AcDbCircle
 10
-208.4999999999999
 20
201.5000000000001
 30
0.0
 40
2.599999999999881
  0
SPLINE
  5
160
330
1F
100
AcDbEntity
  8
0
  6
Continuous
 62
     7
100
AcDbSpline
210
0.0
220
0.0
230
1.0
 70
     8
 71
     3
 72
    11
 73
     7
 74
     5
 42
0.000000001
 43
0.0000000001
 44
0.00000001
 40
0.0
 40
0.0
 40
0.0
 40
0.0
 40
0.1725011129696077
 40
0.3523006040649657
 40
0.5452876412113198
 40
0.7552217411594311
 40
0.7552217411594311
 40
0.7552217411594311
 40
0.7552217411594311
 10
-68.12495454966319
 20
488.6927051481464
 30
0.0
 10
-68.1726550978483
 20
488.7254023425868
 30
0.0
 10
-68.27007435545666
 20
488.7921801341386
 30
0.0
 10
-68.38134398956707
 20
488.9391498088006
 30
0.0
 10
-68.467086797022
 20
489.1149234484797
 30
0.0
 10
-68.49688009489833
 20
489.2463257611752
 30
0.0
 10
-68.5124032970015
 20
489.3147903428394
 30
0.0
 11
-68.12495454966319
 21
488.6927051481464
 31
0.0
 11
-68.26193541326923
 21
488.7975520729061
 31
0.0
 11
-68.37371739001216
 21
488.9383805061751
 31
0.0
 11
-68.45782703464035
 21
489.1120743891003
 31
0.0
 11
-68.5124032970015
 21
489.3147903428394
 31
0.0
  0
SPLINE
  5
161
330
1F
100
AcDbEntity
  8
0
  6
Continuous
 62
     7
100
AcDbSpline
210
0.0
220
0.0
230
1.0
 70
     8
 71
     3
 72
    11
 73
     7
 74
     5
 42
0.000000001
 43
0.0000000001
 44
0.00000001
 40
0.0
 40
0.0
 40
0.0
 40
0.0
 40
0.2116323332618074
 40
0.4060580662570608
 40
0.5870720112164396
 40
0.7606548228999997
 40
0.7606548228999997
 40
0.7606548228999997
 40
0.7606548228999997
 10
-67.38740329700153
 20
488.6684789832356
 30
0.0
 10
-67.45496442935865
 20
488.6474049910808
 30
0.0
 10
-67.58459369289224
 20
488.6069704252173
 30
0.0
 10
-67.78113691380744
 20
488.593018661295
 30
0.0
 10
-67.96533963851522
 20
488.6160104422874
 30
0.0
 10
-68.07249813945195
 20
488.6674999227494
 30
0.0
 10
-68.12495454966319
 20
488.6927051481464
 30
0.0
 11
-67.38740329700153
 21
488.6684789832356
 31
0.0
 11
-67.59180156362775
 21
488.6136192250424
 31
0.0
 11
-67.78569996318299
 21
488.5993091904952
 31
0.0
 11
-67.96475469742307
 21
488.6258695250598
 31
0.0
 11
-68.12495454966319
 21
488.6927051481464
 31
0.0
  0
SPLINE
  5
162
330
1F
100
AcDbEntity
  8
0
  6
Continuous
 62
     7
100
AcDbSpline
210
0.0
220
0.0
230
1.0
 70
     8
 71
     3
 72
     9
 73
     5
 74
     3
 42
0.000000001
 43
0.0000000001
 44
0.00000001
 40
0.0
 40
0.0
 40
0.0
 40
0.0
 40
0.2322640217092728
 40
0.4439839219676897
 40
0.4439839219676897
 40
0.4439839219676897
 40
0.4439839219676897
 10
-67.91773338289144
 20
488.975420561963
 30
0.0
 10
-67.99205548091047
 20
488.9517883582027
 30
0.0
 10
-68.13412577324405
 20
488.9066142760839
 30
0.0
 10
-68.2830866899384
 20
488.9078059859891
 30
0.0
 10
-68.35412077302371
 20
488.9083742788405
 30
0.0
 11
-67.91773338289144
 21
488.975420561963
 31
0.0
 11
-68.14258544625405
 21
488.9172129518713
 31
0.0
 11
-68.35412077302371
 21
488.9083742788405
 31
0.0
  0
SPLINE
  5
163
330
1F
100
AcDbEntity
  8
0
  6
Continuous
 62
     7
100
AcDbSpline
210
0.0
220
0.0
230
1.0
 70
     8
 71
     3
 72
    19
 73
    15
 74
    13
 42
0.000000001
 43
0.0000000001
 44
0.00000001
 40
0.0
 40
0.0
 40
0.0
 40
0.0
 40
0.2391952226766676
 40
0.5067506047585175
 40
0.8173604626828114
 40
1.171227023291812
 40
1.558672682896725
 40
1.964241012589106
 40
2.369809342281449
 40
2.757255001886644
 40
3.111121562495619
 40
3.421731420419929
 40
3.689286802501667
 40
3.928482025178428
 40
3.928482025178428
 40
3.928482025178428
 40
3.928482025178428
 10
-62.80487793654118
 20
542.3438047060456
 30
0.0
 10
-62.87997693782518
 20
542.3740600215076
 30
0.0
 10
-63.03907905006637
 20
542.4381578534242
 30
0.0
 10
-63.31887307612704
 20
542.396517239827
 30
0.0
 10
-63.60408967949743
 20
542.2706073098362
 30
0.0
 10
-63.88741847553743
 20
542.0589781237668
 30
0.0
 10
-64.15002055957542
 20
541.7791535542804
 30
0.0
 10
-64.37606572988649
 20
541.4478349073478
 30
0.0
 10
-64.5507448046352
 20
541.0867868694479
 30
0.0
 10
-64.66256301009307
 20
540.7196924222583
 30
0.0
 10
-64.70492460506674
 20
540.368597542869
 30
0.0
 10
-64.67201939281043
 20
540.0585667890483
 30
0.0
 10
-64.56874626930406
 20
539.7952166425108
 30
0.0
 10
-64.43391093729467
 20
539.6891909502568
 30
0.0
 10
-64.37026627618087
 20
539.6391449592159
 30
0.0
 11
-62.80487793654118
 21
542.3438047060456
 31
0.0
 11
-63.03337564950616
 21
542.4145376686603
 31
0.0
 11
-63.2996406497179
 21
542.3882919836606
 31
0.0
 11
-63.58552785116766
 21
542.2668547987471
 31
0.0
 11
-63.87155436417767
 21
542.0585032336833
 31
0.0
 11
-64.13822780935732
 21
541.7774348968703
 31
0.0
 11
-64.3673752619907
 21
541.4428050853429
 31
0.0
 11
-64.54338001662154
 21
541.0774176304974
 31
0.0
 11
-64.6542485339975
 21
540.7061733602684
 31
0.0
 11
-64.69242426621219
 21
540.3543720608407
 31
0.0
 11
-64.6553067186338
 21
540.045987934313
 31
0.0
 11
-64.54542427181491
 21
539.8020376643809
 31
0.0
 11
-64.37026627618087
 21
539.6391449592159
 31
0.0
  0
SPLINE
  5
164
330
1F
100
AcDbEntity
  8
0
  6
Continuous
 62
     7
100
AcDbSpline
210
0.0
220
0.0
230
1.0
 70
     8
 71
     3
 72
    19
 73
    15
 74
    13
 42
0.000000001
 43
0.0000000001
 44
0.00000001
 40
0.0
 40
0.0
 40
0.0
 40
0.0
 40
0.2412592956470408
 40
0.5178755589688868
 40
0.8338709222772942
 40
1.184142374536309
 40
1.557801752283053
 40
1.940735035783706
 40
2.317668374520344
 40
2.674071729466349
 40
2.998164063902805
 40
3.28333471708787
 40
3.531319622061118
 40
3.755490832603158
 40
3.755490832603158
 40
3.755490832603158
 40
3.755490832603158
 10
-64.20657232739822
 20
539.5777682469849
 30
0.0
 10
-64.12561484177799
 20
539.5717140117258
 30
0.0
 10
-63.95183541249325
 20
539.5587183038203
 30
0.0
 10
-63.68407220331578
 20
539.6552073363034
 30
0.0
 10
-63.41533187076627
 20
539.8193354003897
 30
0.0
 10
-63.15702318726244
 20
540.0537210406223
 30
0.0
 10
-62.92391998276106
 20
540.3411731936837
 30
0.0
 10
-62.72912056542452
 20
540.6664085740729
 30
0.0
 10
-62.58385963726762
 20
541.0104225143763
 30
0.0
 10
-62.49665698753544
 20
541.3532796995148
 30
0.0
 10
-62.47202199186484
 20
541.6768639656219
 30
0.0
 10
-62.51416029745288
 20
541.9606616771904
 30
0.0
 10
-62.61847152640363
 20
542.2001602294808
 30
0.0
 10
-62.74486743299149
 20
542.2975607163843
 30
0.0
 10
-62.80487793654118
 20
542.3438047060456
 30
0.0
 11
-64.20657232739822
 21
539.5777682469849
 31
0.0
 11
-63.96532434961786
 21
539.5754313365707
 31
0.0
 11
-63.7013768943814
 21
539.6581857736984
 31
0.0
 11
-63.43059072491405
 21
539.8210597121212
 31
0.0
 11
-63.16923771009449
 21
540.0542649645639
 31
0.0
 11
-62.93302308741797
 21
540.3437886775351
 31
0.0
 11
-62.73614091336252
 21
540.6722324433681
 31
0.0
 11
-62.59042262017234
 21
541.0198600019792
 31
0.0
 11
-62.50462395072003
 21
541.3657818698282
 31
0.0
 11
-62.48390139179091
 21
541.6892110209249
 31
0.0
 11
-62.52949941454339
 21
541.9707125669333
 31
0.0
 11
-62.63867874086581
 21
542.1933701297888
 31
0.0
 11
-62.80487793654118
 21
542.3438047060456
 31
0.0
  0
SPLINE
  5
165
330
1F
100
AcDbEntity
  8
0
  6
Continuous
 62
     7
100
AcDbSpline
210
0.0
220
0.0
230
1.0
 70
     8
 71
     3
 72
    19
 73
    15
 74
    13
 42
0.000000001
 43
0.0000000001
 44
0.00000001
 40
0.0
 40
0.0
 40
0.0
 40
0.0
 40
0.2162324808423531
 40
0.4581025455558074
 40
0.738893857429563
 40
1.058789228478846
 40
1.409040105111594
 40
1.775673875655104
 40
2.142307646198599
 40
2.492558522831437
 40
2.812453893880833
 40
3.093245205754596
 40
3.335115270468065
 40
3.551347751310425
 40
3.551347751310425
 40
3.551347751310425
 40
3.551347751310425
 10
-62.88001657684387
 20
542.2139810381977
 30
0.0
 10
-62.94790607386103
 20
542.2413318433177
 30
0.0
 10
-63.09173438330781
 20
542.2992762815279
 30
0.0
 10
-63.34466818260147
 20
542.2616331699542
 30
0.0
 10
-63.60250399223537
 20
542.1478105928232
 30
0.0
 10
-63.85863322420317
 20
541.9564978088265
 30
0.0
 10
-64.0960255085852
 20
541.7035363978093
 30
0.0
 10
-64.30037034290768
 20
541.404024340684
 30
0.0
 10
-64.45828022655895
 20
541.0776369139609
 30
0.0
 10
-64.55936388426248
 20
540.7457835332441
 30
0.0
 10
-64.59765876576344
 20
540.4283937620795
 30
0.0
 10
-64.5679124541544
 20
540.1481259602541
 30
0.0
 10
-64.47455354793289
 20
539.9100574295678
 30
0.0
 10
-64.35266240940332
 20
539.8142102028689
 30
0.0
 10
-64.29512763587815
 20
539.7689686270637
 30
0.0
 11
-62.88001657684387
 21
542.2139810381977
 31
0.0
 11
-63.08657850936422
 21
542.2779236364014
 31
0.0
 11
-63.32728206955562
 21
542.2541975371616
 31
0.0
 11
-63.58572409966621
 21
542.1444183219999
 31
0.0
 11
-63.84429206742726
 21
541.9560685071823
 31
0.0
 11
-64.08536486186968
 21
541.7019827307033
 31
0.0
 11
-64.29251415905023
 21
541.3994773810825
 31
0.0
 11
-64.45162245723651
 21
541.0691671219022
 31
0.0
 11
-64.55184759694438
 21
540.7335623016153
 31
0.0
 11
-64.58635845886644
 21
540.4155339269325
 31
0.0
 11
-64.5528041958556
 21
540.1367546765515
 31
0.0
 11
-64.45347046393132
 21
539.9162236325328
 31
0.0
 11
-64.29512763587815
 21
539.7689686270637
 31
0.0
  0
SPLINE
  5
166
330
1F
100
AcDbEntity
  8
0
  6
Continuous
 62
     7
100
AcDbSpline
210
0.0
220
0.0
230
1.0
 70
     8
 71
     3
 72
    19
 73
    15
 74
    13
 42
0.000000001
 43
0.0000000001
 44
0.00000001
 40
0.0
 40
0.0
 40
0.0
 40
0.0
 40
0.2186884963297061
 40
0.4695246816495501
 40
0.7554322146443637
 40
1.071495256165859
 40
1.407847679939976
 40
1.751881300863121
 40
2.090041809503711
 40
2.409494515519701
 40
2.699887182582587
 40
2.955484922072626
 40
3.177967517596657
 40
3.379300140327943
 40
3.379300140327943
 40
3.379300140327943
 40
3.379300140327943
 10
-64.1315512177392
 20
539.7105888872684
 30
0.0
 10
-64.05807986270122
 20
539.7071218352181
 30
0.0
 10
-63.90033670416351
 20
539.6996780875565
 30
0.0
 10
-63.6595489738054
 20
539.7910756417551
 30
0.0
 10
-63.4182893079798
 20
539.9424184087877
 30
0.0
 10
-63.18713271981206
 20
540.1559022381514
 30
0.0
 10
-62.97907956382811
 20
540.4161046249324
 30
0.0
 10
-62.80572749558171
 20
540.7093354939008
 30
0.0
 10
-62.67694434711473
 20
541.0186701134334
 30
0.0
 10
-62.60019656707506
 20
541.3264053266579
 30
0.0
 10
-62.57940079861109
 20
541.6164902074215
 30
0.0
 10
-62.61823603692777
 20
541.8707506512831
 30
0.0
 10
-62.71256837562583
 20
542.085197391929
 30
0.0
 10
-62.82608887230293
 20
542.1725054938319
 30
0.0
 10
-62.88001657684387
 20
542.2139810381977
 30
0.0
 11
-64.1315512177392
 21
539.7105888872684
 31
0.0
 11
-63.9128913286755
 21
539.7141260259941
 31
0.0
 11
-63.6749290701642
 21
539.793452902577
 31
0.0
 11
-63.43178354661097
 21
539.943863581975
 31
0.0
 11
-63.19788152337908
 21
540.1564328367372
 31
0.0
 11
-62.98710152142631
 21
540.4185487309132
 31
0.0
 11
-62.81194961728582
 21
540.7146584088038
 31
0.0
 11
-62.68281873720943
 21
541.0271927977898
 31
0.0
 11
-62.60737015621785
 21
541.3376079103479
 31
0.0
 11
-62.59008118015081
 21
541.6274854560828
 31
0.0
 11
-62.63197695880366
 21
541.8796261846105
 31
0.0
 11
-62.73057231476467
 21
542.0790690668048
 31
0.0
 11
-62.88001657684387
 21
542.2139810381977
 31
0.0
  0
SPLINE
  5
167
330
1F
100
AcDbEntity
  8
0
  6
Continuous
 62
     7
100
AcDbSpline
210
0.0
220
0.0
230
1.0
 70
     8
 71
     3
 72
     9
 73
     5
 74
     3
 42
0.000000001
 43
0.0000000001
 44
0.00000001
 40
0.0
 40
0.0
 40
0.0
 40
0.0
 40
0.1213836112713333
 40
0.2508235802466667
 40
0.2508235802466667
 40
0.2508235802466667
 40
0.2508235802466667
 10
-64.43680628439819
 20
539.7178050044413
 30
0.0
 10
-64.39641377838542
 20
539.7131942123666
 30
0.0
 10
-64.31294787275709
 20
539.7036666249835
 30
0.0
 10
-64.22990009592658
 20
539.7165419684221
 30
0.0
 10
-64.18704247667833
 20
539.72318642594
 30
0.0
 11
-64.43680628439819
 21
539.7178050044413
 31
0.0
 11
-64.31572669058905
 21
539.7092193614744
 31
0.0
 11
-64.18704247667833
 21
539.72318642594
 31
0.0
  0
SPLINE
  5
168
330
1F
100
AcDbEntity
  8
0
  6
Continuous
 62
     7
100
AcDbSpline
210
0.0
220
0.0
230
1.0
 70
     8
 71
     3
 72
     9
 73
     5
 74
     3
 42
0.000000001
 43
0.0000000001
 44
0.00000001
 40
0.0
 40
0.0
 40
0.0
 40
0.0
 40
0.0862479990563904
 40
0.174379223669147
 40
0.174379223669147
 40
0.174379223669147
 40
0.174379223669147
 10
-64.29512763587815
 20
539.7689686270637
 30
0.0
 10
-64.26946251614737
 20
539.7557034362505
 30
0.0
 10
-64.21757187110478
 20
539.7288834274818
 30
0.0
 10
-64.16043047222175
 20
539.7167308087463
 30
0.0
 10
-64.1315512177392
 20
539.7105888872684
 30
0.0
 11
-64.29512763587815
 21
539.7689686270637
 31
0.0
 11
-64.21684778404914
 21
539.7327611376041
 31
0.0
 11
-64.1315512177392
 21
539.7105888872684
 31
0.0
  0
SPLINE
  5
169
330
1F
100
AcDbEntity
  8
0
  6
Continuous
 62
     7
100
AcDbSpline
210
0.0
220
0.0
230
1.0
 70
     8
 71
     3
 72
     9
 73
     5
 74
     3
 42
0.000000001
 43
0.0000000001
 44
0.00000001
 40
0.0
 40
0.0
 40
0.0
 40
0.0
 40
0.0591007118601258
 40
0.1176040174497268
 40
0.1176040174497268
 40
0.1176040174497268
 40
0.1176040174497268
 10
-64.63615493985765
 20
539.9831213082748
 30
0.0
 10
-64.62158118377494
 20
539.9697965018503
 30
0.0
 10
-64.59258097463291
 20
539.9432815953285
 30
0.0
 10
-64.5592138353042
 20
539.9225307432241
 30
0.0
 10
-64.54261500929343
 20
539.9122080304699
 30
0.0
 11
-64.63615493985765
 21
539.9831213082748
 31
0.0
 11
-64.5913308127584
 21
539.9446025875685
 31
0.0
 11
-64.54261500929343
 21
539.9122080304699
 31
0.0
  0
SPLINE
  5
16A
330
1F
100
AcDbEntity
  8
0
  6
Continuous
 62
     7
100
AcDbSpline
210
0.0
220
0.0
230
1.0
 70
     8
 71
     3
 72
     9
 73
     5
 74
     3
 42
0.000000001
 43
0.0000000001
 44
0.00000001
 40
0.0
 40
0.0
 40
0.0
 40
0.0
 40
0.0240744598118512
 40
0.0483625429171446
 40
0.0483625429171446
 40
0.0483625429171446
 40
0.0483625429171446
 10
-64.48409254930704
 20
539.7278998526328
 30
0.0
 10
-64.47629938086745
 20
539.7259763601951
 30
0.0
 10
-64.46064388738606
 20
539.7221123268296
 30
0.0
 10
-64.44477551757011
 20
539.7192449937979
 30
0.0
 10
-64.43680628439819
 20
539.7178050044413
 30
0.0
 11
-64.48409254930704
 21
539.7278998526328
 31
0.0
 11
-64.46066029174122
 21
539.7223763636314
 31
0.0
 11
-64.43680628439819
 21
539.7178050044413
 31
0.0
  0
SPLINE
  5
16B
330
1F
100
AcDbEntity
  8
0
  6
Continuous
 62
     7
100
AcDbSpline
210
0.0
220
0.0
230
1.0
 70
     8
 71
     3
 72
     9
 73
     5
 74
     3
 42
0.000000001
 43
0.0000000001
 44
0.00000001
 40
0.0
 40
0.0
 40
0.0
 40
0.0
 40
0.0869132244562646
 40
0.1754093911625672
 40
0.1754093911625672
 40
0.1754093911625672
 40
0.1754093911625672
 10
-64.37026627618087
 20
539.6391449592159
 30
0.0
 10
-64.34448372341414
 20
539.6256720209927
 30
0.0
 10
-64.29244903494575
 20
539.598480781517
 30
0.0
 10
-64.23536959881947
 20
539.5847138310525
 30
0.0
 10
-64.20657232739822
 20
539.5777682469849
 30
0.0
 11
-64.37026627618087
 21
539.6391449592159
 31
0.0
 11
-64.29168008667077
 21
539.6020219266649
 31
0.0
 11
-64.20657232739822
 21
539.5777682469849
 31
0.0
  0
SPLINE
  5
16C
330
1F
100
AcDbEntity
  8
0
  6
Continuous
 62
     7
100
AcDbSpline
210
0.0
220
0.0
230
1.0
 70
     8
 71
     3
 72
     9
 73
     5
 74
     3
 42
0.000000001
 43
0.0000000001
 44
0.00000001
 40
0.0
 40
0.0
 40
0.0
 40
0.0
 40
0.0585033055895126
 40
0.1176040174496383
 40
0.1176040174496383
 40
0.1176040174496383
 40
0.1176040174496383
 10
-63.12750395025915
 20
542.3572204416039
 30
0.0
 10
-63.14472338279967
 20
542.366470877622
 30
0.0
 10
-63.17933809239495
 20
542.3850661923457
 30
0.0
 10
-63.2167753765674
 20
542.3970036188658
 30
0.0
 10
-63.23558910945894
 20
542.4030026427276
 30
0.0
 11
-63.12750395025915
 21
542.3572204416039
 31
0.0
 11
-63.17986074506227
 21
542.3833241362618
 31
0.0
 11
-63.23558910945894
 21
542.4030026427276
 31
0.0
  0
SPLINE
  5
16D
330
1F
100
AcDbEntity
  8
0
  6
Continuous
 62
     7
100
AcDbSpline
210
0.0
220
0.0
230
1.0
 70
     8
 71
     3
 72
     9
 73
     5
 74
     3
 42
0.000000001
 43
0.0000000001
 44
0.00000001
 40
0.0
 40
0.0
 40
0.0
 40
0.0
 40
0.1549873979891392
 40
0.2989149781452037
 40
0.2989149781452037
 40
0.2989149781452037
 40
0.2989149781452037
 10
-62.78647664627962
 20
542.1430677603928
 30
0.0
 10
-62.80551131936699
 20
542.1915366855923
 30
0.0
 10
-62.84222237892534
 20
542.2850158100871
 30
0.0
 10
-62.9072353023676
 20
542.3614744038732
 30
0.0
 10
-62.93853903683021
 20
542.3982892160348
 30
0.0
 11
-62.78647664627962
 21
542.1430677603928
 31
0.0
 11
-62.85118941007484
 21
542.2838986947784
 31
0.0
 11
-62.93853903683021
 21
542.3982892160348
 31
0.0
  0
SPLINE
  5
16E
330
1F
100
AcDbEntity
  8
0
  6
Continuous
 62
     7
100
AcDbSpline
210
0.0
220
0.0
230
1.0
 70
     8
 71
     3
 72
    19
 73
    15
 74
    13
 42
0.000000001
 43
0.0000000001
 44
0.00000001
 40
0.0
 40
0.0
 40
0.0
 40
0.0
 40
0.1990104244666697
 40
0.4216165011538289
 40
0.6800439034896504
 40
0.9744608823692541
 40
1.296815671772885
 40
1.634248522954694
 40
1.971681374136632
 40
2.294036163540116
 40
2.588453142419802
 40
2.846880544755628
 40
3.069486621442743
 40
3.268497045909421
 40
3.268497045909421
 40
3.268497045909421
 40
3.268497045909421
 10
-59.40083665113815
 20
544.1628904788274
 30
0.0
 10
-59.46331901995516
 20
544.1880629011905
 30
0.0
 10
-59.59569197730617
 20
544.2413922941214
 30
0.0
 10
-59.82848060652455
 20
544.2067473090653
 30
0.0
 10
-60.06578082085623
 20
544.1019902465791
 30
0.0
 10
-60.30151037976974
 20
543.9259147641368
 30
0.0
 10
-60.51999531440968
 20
543.6931007219713
 30
0.0
 10
-60.70806489674096
 20
543.4174436072019
 30
0.0
 10
-60.85339788706902
 20
543.1170516388611
 30
0.0
 10
-60.94643063395687
 20
542.811629057999
 30
0.0
 10
-60.98167548035325
 20
542.5195181180029
 30
0.0
 10
-60.95429834422971
 20
542.2615725301744
 30
0.0
 10
-60.86837510097168
 20
542.0424652113759
 30
0.0
 10
-60.7561921075521
 20
541.954251833844
 30
0.0
 10
-60.70323974971836
 20
541.9126135694653
 30
0.0
 11
-59.40083665113815
 21
544.1628904788274
 31
0.0
 11
-59.59094674832506
 21
544.2217403037229
 31
0.0
 11
-59.81247922850122
 21
544.1999038938031
 31
0.0
 11
-60.05033738010741
 21
544.0988681559552
 31
0.0
 11
-60.28831143893174
 21
543.9255196538221
 31
0.0
 11
-60.51018374532121
 21
543.6916707975936
 31
0.0
 11
-60.70083442591218
 21
543.4132587944029
 31
0.0
 11
-60.84727038176506
 21
543.1092564319713
 31
0.0
 11
-60.93951298822185
 21
542.800381199141
 31
0.0
 11
-60.97127519742445
 21
542.5076825180171
 31
0.0
 11
-60.94039339783924
 21
542.2511069247461
 31
0.0
 11
-60.84897120208592
 21
542.0481403001626
 31
0.0
 11
-60.70323974971836
 21
541.9126135694653
 31
0.0
  0
SPLINE
  5
16F
330
1F
100
AcDbEntity
  8
0
  6
Continuous
 62
     7
100
AcDbSpline
210
0.0
220
0.0
230
1.0
 70
     8
 71
     3
 72
    11
 73
     7
 74
     5
 42
0.000000001
 43
0.0000000001
 44
0.00000001
 40
0.0
 40
0.0
 40
0.0
 40
0.0
 40
0.1969521251955037
 40
0.3731347804087244
 40
0.5316055954178791
 40
0.6796136873790553
 40
0.6796136873790553
 40
0.6796136873790553
 40
0.6796136873790553
 10
-59.13279938488574
 20
543.5697840939404
 30
0.0
 10
-59.13575418870588
 20
543.6356349923781
 30
0.0
 10
-59.14135221340923
 20
543.7603925200585
 30
0.0
 10
-59.19389698907668
 20
543.9310433505573
 30
0.0
 10
-59.27698684122535
 20
544.0731506266416
 30
0.0
 10
-59.36050375819925
 20
544.1336658306653
 30
0.0
 10
-59.40083665113815
 20
544.1628904788274
 30
0.0
 11
-59.13279938488574
 21
543.5697840939404
 31
0.0
 11
-59.150379486124
 21
543.7659500422963
 31
0.0
 11
-59.20244719857831
 21
543.9342630905028
 31
0.0
 11
-59.28701113632484
 21
544.0682852557716
 31
0.0
 11
-59.40083665113815
 21
544.1628904788274
 31
0.0
  0
SPLINE
  5
170
330
1F
100
AcDbEntity
  8
0
  6
Continuous
 62
     7
100
AcDbSpline
210
0.0
220
0.0
230
1.0
 70
     8
 71
     3
 72
    17
 73
    13
 74
    11
 42
0.000000001
 43
0.0000000001
 44
0.00000001
 40
0.0
 40
0.0
 40
0.0
 40
0.0
 40
0.1787888171979068
 40
0.3752378234564274
 40
0.5997352511053778
 40
0.8543097231467816
 40
1.134798296710805
 40
1.433074485282082
 40
1.738762688188474
 40
2.040633844336848
 40
2.327892797224063
 40
2.591520179091698
 40
2.591520179091698
 40
2.591520179091698
 40
2.591520179091698
 10
-60.70323974971836
 20
541.9126135694653
 30
0.0
 10
-60.64760965671769
 20
541.8891746678194
 30
0.0
 10
-60.5308545046415
 20
541.8399816580984
 30
0.0
 10
-60.3251971807092
 20
541.8579862550962
 30
0.0
 10
-60.11254007042318
 20
541.9349345796655
 30
0.0
 10
-59.89753628317431
 20
542.0724063103246
 30
0.0
 10
-59.69174196268825
 20
542.2604891778273
 30
0.0
 10
-59.50528474394325
 20
542.4901146640238
 30
0.0
 10
-59.34768819619751
 20
542.7488827527227
 30
0.0
 10
-59.22895790664477
 20
543.02311031765
 30
0.0
 10
-59.14958073834964
 20
543.2981094963709
 30
0.0
 10
-59.13823087235791
 20
543.4818532687387
 30
0.0
 10
-59.13279938488574
 20
543.5697840939404
 30
0.0
 11
-60.70323974971836
 21
541.9126135694653
 31
0.0
 11
-60.53364359713864
 21
541.8560221482479
 31
0.0
 11
-60.33739236674316
 21
541.8648351058321
 31
0.0
 11
-60.12534768047096
 21
541.9385653268844
 31
0.0
 11
-59.90924558556399
 21
542.0731314670309
 31
0.0
 11
-59.70104661291211
 21
542.2610863219919
 31
0.0
 11
-59.51227372672398
 21
542.4920267515938
 31
0.0
 11
-59.35337510699337
 21
542.7531713591272
 31
0.0
 11
-59.23314490595094
 21
543.0300664541401
 31
0.0
 11
-59.15823787394114
 21
543.3073869212874
 31
0.0
 11
-59.13279938488574
 21
543.5697840939404
 31
0.0
  0
SPLINE
  5
171
330
1F
100
AcDbEntity
  8
0
  6
Continuous
 62
     7
100
AcDbSpline
210
0.0
220
0.0
230
1.0
 70
     8
 71
     3
 72
    15
 73
    11
 74
     9
 42
0.000000001
 43
0.0000000001
 44
0.00000001
 40
0.0
 40
0.0
 40
0.0
 40
0.0
 40
0.2242792176251235
 40
0.4804257153243764
 40
0.7649232753348626
 40
1.069487971962467
 40
1.383104623624963
 40
1.6936512974625
 40
1.989373711626486
 40
2.260408422398783
 40
2.260408422398783
 40
2.260408422398783
 40
2.260408422398783
 10
-60.9115336593153
 20
542.1643456408558
 30
0.0
 10
-60.83839310449808
 20
542.1816830017608
 30
0.0
 10
-60.68171963917452
 20
542.2188211624198
 30
0.0
 10
-60.46172029225161
 20
542.3546888537971
 30
0.0
 10
-60.24816939383332
 20
542.5392036622611
 30
0.0
 10
-60.05402168392517
 20
542.7708131116264
 30
0.0
 10
-59.88906920646158
 20
543.0340050847147
 30
0.0
 10
-59.76442742473706
 20
543.3148358045348
 30
0.0
 10
-59.68086407105597
 20
543.5972828581009
 30
0.0
 10
-59.66886680051659
 20
543.7863229023552
 30
0.0
 10
-59.66312947077569
 20
543.8767256726678
 30
0.0
 11
-60.9115336593153
 21
542.1643456408558
 31
0.0
 11
-60.69614342440693
 21
542.2268613616358
 31
0.0
 11
-60.47411565333648
 21
542.3545903798811
 31
0.0
 11
-60.25840331072435
 21
542.5400817443985
 31
0.0
 11
-60.06159078468791
 21
542.7725134193985
 31
0.0
 11
-59.89516027305294
 21
543.0383259269423
 31
0.0
 11
-59.7688208403263
 21
543.3220116409007
 31
0.0
 11
-59.68994353901477
 21
543.6070206142033
 31
0.0
 11
-59.66312947077569
 21
543.8767256726678
 31
0.0
  0
SPLINE
  5
172
330
1F
100
AcDbEntity
  8
0
  6
Continuous
 62
     7
100
AcDbSpline
210
0.0
220
0.0
230
1.0
 70
     8
 71
     3
 72
     9
 73
     5
 74
     3
 42
0.000000001
 43
0.0000000001
 44
0.00000001
 40
0.0
 40
0.0
 40
0.0
 40
0.0
 40
0.1830116156304085
 40
0.348155099934031
 40
0.348155099934031
 40
0.348155099934031
 40
0.348155099934031
 10
-59.66312947077569
 20
543.8767256726678
 30
0.0
 10
-59.66513019418632
 20
543.9380663801936
 30
0.0
 10
-59.66893632235259
 20
544.0547588622233
 30
0.0
 10
-59.70551983669177
 20
544.165548269846
 30
0.0
 10
-59.72287282743116
 20
544.2180999861641
 30
0.0
 11
-59.66312947077569
 21
543.8767256726678
 31
0.0
 11
-59.67818868811641
 21
544.0591166586811
 31
0.0
 11
-59.72287282743116
 21
544.2180999861641
 31
0.0
  0
SPLINE
  5
173
330
1F
100
AcDbEntity
  8
0
  6
Continuous
 62
     7
100
AcDbSpline
210
0.0
220
0.0
230
1.0
 70
     8
 71
     3
 72
    11
 73
     7
 74
     5
 42
0.000000001
 43
0.0000000001
 44
0.00000001
 40
0.0
 40
0.0
 40
0.0
 40
0.0
 40
0.2116323332617906
 40
0.4060580662570724
 40
0.5870720112164538
 40
0.7606548228999865
 40
0.7606548228999865
 40
0.7606548228999865
 40
0.7606548228999865
 10
-31.85702305885195
 20
561.7740378073127
 30
0.0
 10
-31.78946192649482
 20
561.7951117994675
 30
0.0
 10
-31.65983266296116
 20
561.8355463653305
 30
0.0
 10
-31.46328944204598
 20
561.8494981292533
 30
0.0
 10
-31.27908671733824
 20
561.8265063482602
 30
0.0
 10
-31.17192821640146
 20
561.7750168677987
 30
0.0
 10
-31.11947180619023
 20
561.7498116424017
 30
0.0
 11
-31.85702305885195
 21
561.7740378073127
 31
0.0
 11
-31.65262479222569
 21
561.8288975655057
 31
0.0
 11
-31.45872639267043
 21
561.8432076000529
 31
0.0
 11
-31.27967165843036
 21
561.8166472654882
 31
0.0
 11
-31.11947180619023
 21
561.7498116424017
 31
0.0
  0
SPLINE
  5
174
330
1F
100
AcDbEntity
  8
0
  6
Continuous
 62
     7
100
AcDbSpline
210
0.0
220
0.0
230
1.0
 70
     8
 71
     3
 72
    11
 73
     7
 74
     5
 42
0.000000001
 43
0.0000000001
 44
0.00000001
 40
0.0
 40
0.0
 40
0.0
 40
0.0
 40
0.2116323332618495
 40
0.4060580662571313
 40
0.5870720112165339
 40
0.7606548229000436
 40
0.7606548229000436
 40
0.7606548229000436
 40
0.7606548229000436
 10
-32.38561762826731
 20
558.2636210015492
 30
0.0
 10
-32.45317876062444
 20
558.2425470093943
 30
0.0
 10
-32.58280802415808
 20
558.202112443531
 30
0.0
 10
-32.77935124507329
 20
558.1881606796082
 30
0.0
 10
-32.96355396978103
 20
558.2111524606014
 30
0.0
 10
-33.07071247071781
 20
558.2626419410627
 30
0.0
 10
-33.12316888092903
 20
558.2878471664599
 30
0.0
 11
-32.38561762826731
 21
558.2636210015492
 31
0.0
 11
-32.59001589489357
 21
558.2087612433559
 31
0.0
 11
-32.78391429444883
 21
558.1944512088087
 31
0.0
 11
-32.96296902868892
 21
558.2210115433734
 31
0.0
 11
-33.12316888092903
 21
558.2878471664599
 31
0.0
  0
SPLINE
  5
175
330
1F
100
AcDbEntity
  8
0
  6
Continuous
 62
     7
100
AcDbSpline
210
0.0
220
0.0
230
1.0
 70
     8
 71
     3
 72
    11
 73
     7
 74
     5
 42
0.000000001
 43
0.0000000001
 44
0.00000001
 40
0.0
 40
0.0
 40
0.0
 40
0.0
 40
0.1725011129696365
 40
0.3523006040649588
 40
0.5452876412113548
 40
0.755221741159627
 40
0.755221741159627
 40
0.755221741159627
 40
0.755221741159627
 10
-33.12316888092903
 20
558.2878471664599
 30
0.0
 10
-33.17086942911415
 20
558.3205443609003
 30
0.0
 10
-33.26828868672243
 20
558.3873221524519
 30
0.0
 10
-33.379558320833
 20
558.5342918271142
 30
0.0
 10
-33.46530112828781
 20
558.7100654667931
 30
0.0
 10
-33.49509442616417
 20
558.841467779489
 30
0.0
 10
-33.51061762826731
 20
558.9099323611531
 30
0.0
 11
-33.12316888092903
 21
558.2878471664599
 31
0.0
 11
-33.26014974453507
 21
558.3926940912196
 31
0.0
 11
-33.371931721278
 21
558.5335225244885
 31
0.0
 11
-33.45604136590617
 21
558.7072164074139
 31
0.0
 11
-33.51061762826731
 21
558.9099323611531
 31
0.0
  0
SPLINE
  5
176
330
1F
100
AcDbEntity
  8
0
  6
Continuous
 62
     7
100
AcDbSpline
210
0.0
220
0.0
230
1.0
 70
     8
 71
     3
 72
     9
 73
     5
 74
     3
 42
0.000000001
 43
0.0000000001
 44
0.00000001
 40
0.0
 40
0.0
 40
0.0
 40
0.0
 40
0.2322640217093087
 40
0.4439839219677231
 40
0.4439839219677231
 40
0.4439839219677231
 40
0.4439839219677231
 10
-32.91594771415726
 20
558.5705625802766
 30
0.0
 10
-32.99026981217632
 20
558.5469303765163
 30
0.0
 10
-33.13234010450982
 20
558.5017562943972
 30
0.0
 10
-33.28130102120421
 20
558.5029480043024
 30
0.0
 10
-33.35233510428952
 20
558.503516297154
 30
0.0
 11
-32.91594771415726
 21
558.5705625802766
 31
0.0
 11
-33.14079977751986
 21
558.5123549701848
 31
0.0
 11
-33.35233510428952
 21
558.503516297154
 31
0.0
  0
SPLINE
  5
177
330
1F
100
AcDbEntity
  8
0
  6
Continuous
 62
     7
100
AcDbSpline
210
0.0
220
0.0
230
1.0
 70
     8
 71
     3
 72
     9
 73
     5
 74
     3
 42
0.000000001
 43
0.0000000001
 44
0.00000001
 40
0.0
 40
0.0
 40
0.0
 40
0.0
 40
0.2092522910079354
 40
0.4385519700761412
 40
0.4385519700761412
 40
0.4385519700761412
 40
0.4385519700761412
 10
-31.42063566871968
 20
561.8410840904351
 30
0.0
 10
-31.38512610080432
 20
561.7805269055564
 30
0.0
 10
-31.31070499353804
 20
561.6536108543728
 30
0.0
 10
-31.27895422541452
 20
561.5098396932467
 30
0.0
 10
-31.26235314474189
 20
561.4346680264362
 30
0.0
 11
-31.42063566871968
 21
561.8410840904351
 31
0.0
 11
-31.32382156128428
 21
561.6555751948764
 31
0.0
 11
-31.26235314474189
 21
561.4346680264362
 31
0.0
  0
SPLINE
  5
178
330
1F
100
AcDbEntity
  8
0
  6
Continuous
 62
     7
100
AcDbSpline
210
0.0
220
0.0
230
1.0
 70
     8
 71
     3
 72
    11
 73
     7
 74
     5
 42
0.000000001
 43
0.0000000001
 44
0.00000001
 40
0.0
 40
0.0
 40
0.0
 40
0.0
 40
0.1725011129696394
 40
0.3523006040649573
 40
0.5452876412112525
 40
0.7552217411594141
 40
0.7552217411594141
 40
0.7552217411594141
 40
0.7552217411594141
 10
-31.11947180619023
 20
561.7498116424017
 30
0.0
 10
-31.07177125800511
 20
561.7171144479614
 30
0.0
 10
-30.97435200039682
 20
561.6503366564098
 30
0.0
 10
-30.8630823662863
 20
561.5033669817471
 30
0.0
 10
-30.77733955883145
 20
561.3275933420687
 30
0.0
 10
-30.74754626095509
 20
561.1961910293728
 30
0.0
 10
-30.73202305885195
 20
561.1277264477087
 30
0.0
 11
-31.11947180619023
 21
561.7498116424017
 31
0.0
 11
-30.98249094258419
 21
561.644964717642
 31
0.0
 11
-30.87070896584126
 21
561.5041362843731
 31
0.0
 11
-30.78659932121309
 21
561.3304424014478
 31
0.0
 11
-30.73202305885195
 21
561.1277264477087
 31
0.0
  0
SPLINE
  5
179
330
1F
100
AcDbEntity
  8
0
  6
Continuous
 62
     7
100
AcDbSpline
210
0.0
220
0.0
230
1.0
 70
     8
 71
     3
 72
    13
 73
     9
 74
     7
 42
0.000000001
 43
0.0000000001
 44
0.00000001
 40
0.0
 40
0.0
 40
0.0
 40
0.0
 40
0.3659528222561172
 40
0.7516391977201444
 40
1.147581511881581
 40
1.543457796007839
 40
1.928951371105739
 40
2.294600948170809
 40
2.294600948170809
 40
2.294600948170809
 40
2.294600948170809
 10
-67.38913881347594
 20
538.6183554901606
 30
0.0
 10
-67.29703617821121
 20
538.6986088484537
 30
0.0
 10
-67.10786439710503
 20
538.8634431390483
 30
0.0
 10
-66.86385046685562
 20
539.1600171325031
 30
0.0
 10
-66.64722910776595
 20
539.4881433925574
 30
0.0
 10
-66.4711597581517
 20
539.8396260138142
 30
0.0
 10
-66.33616126378386
 20
540.1989769544875
 30
0.0
 10
-66.28793164523587
 20
540.4450413428668
 30
0.0
 10
-66.26445391763781
 20
540.5648232252918
 30
0.0
 11
-67.38913881347594
 21
538.6183554901606
 31
0.0
 11
-67.1197877949031
 21
538.8660882034388
 31
0.0
 11
-66.87148687121157
 21
539.1612163661829
 31
0.0
 11
-66.65403058671421
 21
539.4920986436857
 31
0.0
 11
-66.47599648478914
 21
539.8456829928572
 31
0.0
 11
-66.34440747008377
 21
540.2080221000363
 31
0.0
 11
-66.26445391763781
 21
540.5648232252918
 31
0.0
  0
SPLINE
  5
17A
330
1F
100
AcDbEntity
  8
0
  6
Continuous
 62
     7
100
AcDbSpline
210
0.0
220
0.0
230
1.0
 70
     8
 71
     3
 72
    13
 73
     9
 74
     7
 42
0.000000001
 43
0.0000000001
 44
0.00000001
 40
0.0
 40
0.0
 40
0.0
 40
0.0
 40
0.3663279492267502
 40
0.7524198200709808
 40
1.148767915323736
 40
1.545018546208687
 40
1.930825847704241
 40
2.296706270183595
 40
2.296706270183595
 40
2.296706270183595
 40
2.296706270183595
 10
-66.85880872758605
 20
538.3114139114334
 30
0.0
 10
-66.76661493524543
 20
538.3917537609375
 30
0.0
 10
-66.57725337248274
 20
538.5567679217352
 30
0.0
 10
-66.33304257677892
 20
538.853697572882
 30
0.0
 10
-66.116294911549
 20
539.1822164869275
 30
0.0
 10
-65.94020248933258
 20
539.5340971905116
 30
0.0
 10
-65.8052797865852
 20
539.8938100721572
 30
0.0
 10
-65.7572076192149
 20
540.1400916929996
 30
0.0
 10
-65.73380872758605
 20
540.2599681015145
 30
0.0
 11
-66.85880872758605
 21
538.3114139114334
 31
0.0
 11
-66.58919829239883
 21
538.5594187096503
 31
0.0
 11
-66.3406900074418
 21
538.8549023233613
 31
0.0
 11
-66.12310606390896
 21
539.1861862517644
 31
0.0
 11
-65.94504608370285
 21
539.540176657034
 31
0.0
 11
-65.81354794173112
 21
539.9028824792783
 31
0.0
 11
-65.73380872758605
 21
540.2599681015145
 31
0.0
  0
SPLINE
  5
17B
330
1F
100
AcDbEntity
  8
0
  6
Continuous
 62
     7
100
AcDbSpline
210
0.0
220
0.0
230
1.0
 70
     8
 71
     3
 72
    13
 73
     9
 74
     7
 42
0.000000001
 43
0.0000000001
 44
0.00000001
 40
0.0
 40
0.0
 40
0.0
 40
0.0
 40
0.3659528222560369
 40
0.7516391977200252
 40
1.147581511881345
 40
1.543457796007543
 40
1.928951371105177
 40
2.294600948170257
 40
2.294600948170257
 40
2.294600948170257
 40
2.294600948170257
 10
-32.38735314474184
 20
509.5395018638569
 30
0.0
 10
-32.29525050947713
 20
509.6197552221499
 30
0.0
 10
-32.10607872837099
 20
509.7845895127446
 30
0.0
 10
-31.86206479812158
 20
510.0811635061992
 30
0.0
 10
-31.64544343903192
 20
510.4092897662534
 30
0.0
 10
-31.46937408941778
 20
510.7607723875101
 30
0.0
 10
-31.33437559504981
 20
511.1201233281835
 30
0.0
 10
-31.28614597650184
 20
511.3661877165623
 30
0.0
 10
-31.26266824890377
 20
511.4859695989875
 30
0.0
 11
-32.38735314474184
 21
509.5395018638569
 31
0.0
 11
-32.11800212616905
 21
509.787234577135
 31
0.0
 11
-31.86970120247753
 21
510.082362739879
 31
0.0
 11
-31.6522449179802
 21
510.4132450173818
 31
0.0
 11
-31.47421081605515
 21
510.7668293665531
 31
0.0
 11
-31.34262180134977
 21
511.129168473732
 31
0.0
 11
-31.26266824890377
 21
511.4859695989875
 31
0.0
  0
SPLINE
  5
17C
330
1F
100
AcDbEntity
  8
0
  6
Continuous
 62
     7
100
AcDbSpline
210
0.0
220
0.0
230
1.0
 70
     8
 71
     3
 72
    13
 73
     9
 74
     7
 42
0.000000001
 43
0.0000000001
 44
0.00000001
 40
0.0
 40
0.0
 40
0.0
 40
0.0
 40
0.3663279492267502
 40
0.7524198200709236
 40
1.148767915323778
 40
1.545018546208621
 40
1.930825847704281
 40
2.296706270183518
 40
2.296706270183518
 40
2.296706270183518
 40
2.296706270183518
 10
-31.85702305885195
 20
509.2325602851295
 30
0.0
 10
-31.76482926651134
 20
509.3129001346338
 30
0.0
 10
-31.57546770374866
 20
509.4779142954311
 30
0.0
 10
-31.33125690804477
 20
509.7748439465781
 30
0.0
 10
-31.11450924281498
 20
510.1033628606237
 30
0.0
 10
-30.93841682059846
 20
510.4552435642079
 30
0.0
 10
-30.80349411785117
 20
510.814956445853
 30
0.0
 10
-30.75542195048085
 20
511.0612380666959
 30
0.0
 10
-30.73202305885201
 20
511.1811144752105
 30
0.0
 11
-31.85702305885195
 21
509.2325602851295
 31
0.0
 11
-31.58741262366474
 21
509.4805650833465
 31
0.0
 11
-31.33890433870771
 21
509.7760486970574
 31
0.0
 11
-31.12132039517488
 21
510.1073326254606
 31
0.0
 11
-30.94326041496878
 21
510.4613230307301
 31
0.0
 11
-30.81176227299704
 21
510.8240288529745
 31
0.0
 11
-30.73202305885201
 21
511.1811144752105
 31
0.0
  0
SPLINE
  5
17D
330
1F
100
AcDbEntity
  8
0
  6
Continuous
 62
     7
100
AcDbSpline
210
0.0
220
0.0
230
1.0
 70
     8
 71
     3
 72
    17
 73
    13
 74
    11
 42
0.000000001
 43
0.0000000001
 44
0.00000001
 40
0.0
 40
0.0
 40
0.0
 40
0.0
 40
0.2123050734188192
 40
0.4533931501359929
 40
0.720626022639816
 40
1.007298784765933
 40
1.304266032389175
 40
1.601233280012538
 40
1.887906042138739
 40
2.155138914642521
 40
2.396226991359614
 40
2.608532064778478
 40
2.608532064778478
 40
2.608532064778478
 40
2.608532064778478
 10
-40.0518836143122
 20
506.5313583831112
 30
0.0
 10
-39.9825940764944
 20
506.5474094540241
 30
0.0
 10
-39.83462116303654
 20
506.5816877208699
 30
0.0
 10
-39.62534083300456
 20
506.7058720148216
 30
0.0
 10
-39.42079483096244
 20
506.875051641332
 30
0.0
 10
-39.23212125900707
 20
507.0884240477224
 30
0.0
 10
-39.06828383976909
 20
507.3329363418263
 30
0.0
 10
-38.93788499741417
 20
507.5968020346003
 30
0.0
 10
-38.84685939516827
 20
507.8666906047529
 30
0.0
 10
-38.80205980228146
 20
508.1283273939374
 30
0.0
 10
-38.79863366214677
 20
508.371654862519
 30
0.0
 10
-38.84262395551951
 20
508.5170365559475
 30
0.0
 10
-38.86322278242807
 20
508.5851127284196
 30
0.0
 11
-40.0518836143122
 21
506.5313583831112
 31
0.0
 11
-39.84758923759917
 21
506.5891273362962
 31
0.0
 11
-39.63672097425189
 21
506.70599493818
 31
0.0
 11
-39.43038011455101
 21
506.8758091236766
 31
0.0
 11
-39.23942951969465
 21
507.0896294734165
 31
0.0
 11
-39.07392209524647
 21
507.3361996208361
 31
0.0
 11
-38.94257081946299
 21
507.6025384792403
 31
0.0
 11
-38.85229110796328
 21
507.8746245783532
 31
0.0
 11
-38.80783540258429
 21
508.1381337778837
 31
0.0
 11
-38.8115445289673
 21
508.3791933208157
 31
0.0
 11
-38.86322278242807
 21
508.5851127284196
 31
0.0
  0
SPLINE
  5
17E
330
1F
100
AcDbEntity
  8
0
  6
Continuous
 62
     7
100
AcDbSpline
210
0.0
220
0.0
230
1.0
 70
     8
 71
     3
 72
    19
 73
    15
 74
    13
 42
0.000000001
 43
0.0000000001
 44
0.00000001
 40
0.0
 40
0.0
 40
0.0
 40
0.0
 40
0.1990104244666393
 40
0.4216165011537958
 40
0.6800439034896396
 40
0.9744608823692769
 40
1.296815671772908
 40
1.634248522954717
 40
1.971681374136601
 40
2.294036163540194
 40
2.58845314241971
 40
2.84688054475565
 40
3.069486621442811
 40
3.268497045909483
 40
3.268497045909483
 40
3.268497045909483
 40
3.268497045909483
 10
-39.84358970471527
 20
506.2796263117206
 30
0.0
 10
-39.78110733589825
 20
506.2544538893574
 30
0.0
 10
-39.64873437854727
 20
506.201124496427
 30
0.0
 10
-39.41594574932881
 20
506.2357694814822
 30
0.0
 10
-39.17864553499722
 20
506.3405265439691
 30
0.0
 10
-38.9429159760837
 20
506.5166020264113
 30
0.0
 10
-38.72443104144372
 20
506.7494160685767
 30
0.0
 10
-38.53636145911248
 20
507.0250731833461
 30
0.0
 10
-38.39102846878436
 20
507.325465151687
 30
0.0
 10
-38.29799572189661
 20
507.6308877325491
 30
0.0
 10
-38.26275087550016
 20
507.9229986725451
 30
0.0
 10
-38.29012801162374
 20
508.1809442603739
 30
0.0
 10
-38.37605125488173
 20
508.4000515791719
 30
0.0
 10
-38.48823424830132
 20
508.4882649567043
 30
0.0
 10
-38.54118660613506
 20
508.5299032210828
 30
0.0
 11
-39.84358970471527
 21
506.2796263117206
 31
0.0
 11
-39.65347960752838
 21
506.2207764868252
 31
0.0
 11
-39.4319471273522
 21
506.2426128967448
 31
0.0
 11
-39.19408897574601
 21
506.3436486345928
 31
0.0
 11
-38.95611491692168
 21
506.5169971367259
 31
0.0
 11
-38.73424261053221
 21
506.7508459929545
 31
0.0
 11
-38.54359192994124
 21
507.0292579961452
 31
0.0
 11
-38.39715597408837
 21
507.3332603585768
 31
0.0
 11
-38.30491336763158
 21
507.6421355914071
 31
0.0
 11
-38.27315115842898
 21
507.9348342725309
 31
0.0
 11
-38.30403295801419
 21
508.191409865802
 31
0.0
 11
-38.3954551537675
 21
508.3943764903855
 31
0.0
 11
-38.54118660613506
 21
508.5299032210828
 31
0.0
  0
SPLINE
  5
17F
330
1F
100
AcDbEntity
  8
0
  6
Continuous
 62
     7
100
AcDbSpline
210
0.0
220
0.0
230
1.0
 70
     8
 71
     3
 72
    17
 73
    13
 74
    11
 42
0.000000001
 43
0.0000000001
 44
0.00000001
 40
0.0
 40
0.0
 40
0.0
 40
0.0
 40
0.178788817197918
 40
0.375237823456431
 40
0.5997352511053732
 40
0.854309723146807
 40
1.134798296710803
 40
1.433074485282186
 40
1.738762688188522
 40
2.040633844336937
 40
2.327892797224095
 40
2.591520179091785
 40
2.591520179091785
 40
2.591520179091785
 40
2.591520179091785
 10
-38.54118660613506
 20
508.5299032210828
 30
0.0
 10
-38.59681669913574
 20
508.5533421227287
 30
0.0
 10
-38.71357185121197
 20
508.6025351324494
 30
0.0
 10
-38.91922917514426
 20
508.5845305354521
 30
0.0
 10
-39.13188628543026
 20
508.5075822108824
 30
0.0
 10
-39.34689007267908
 20
508.3701104802235
 30
0.0
 10
-39.55268439316526
 20
508.1820276127208
 30
0.0
 10
-39.73914161191016
 20
507.9524021265241
 30
0.0
 10
-39.896738159656
 20
507.6936340378252
 30
0.0
 10
-40.01546844920863
 20
507.419406472898
 30
0.0
 10
-40.09484561750382
 20
507.1444072941774
 30
0.0
 10
-40.10619548349551
 20
506.9606635218092
 30
0.0
 10
-40.11162697096768
 20
506.8727326966076
 30
0.0
 11
-38.54118660613506
 21
508.5299032210828
 31
0.0
 11
-38.71078275871482
 21
508.5864946423001
 31
0.0
 11
-38.9070339891103
 21
508.577681684716
 31
0.0
 11
-39.11907867538248
 21
508.5039514636637
 31
0.0
 11
-39.33518077028944
 21
508.3693853235172
 31
0.0
 11
-39.54337974294134
 21
508.1814304685562
 31
0.0
 11
-39.7321526291295
 21
507.9504900389542
 31
0.0
 11
-39.89105124886009
 21
507.6893454314209
 31
0.0
 11
-40.0112814499025
 21
507.4124503364079
 31
0.0
 11
-40.08618848191229
 21
507.1351298692607
 31
0.0
 11
-40.11162697096768
 21
506.8727326966076
 31
0.0
  0
SPLINE
  5
180
330
1F
100
AcDbEntity
  8
0
  6
Continuous
 62
     7
100
AcDbSpline
210
0.0
220
0.0
230
1.0
 70
     8
 71
     3
 72
    11
 73
     7
 74
     5
 42
0.000000001
 43
0.0000000001
 44
0.00000001
 40
0.0
 40
0.0
 40
0.0
 40
0.0
 40
0.1969521251954465
 40
0.3731347804085564
 40
0.5316055954178149
 40
0.6796136873789911
 40
0.6796136873789911
 40
0.6796136873789911
 40
0.6796136873789911
 10
-40.11162697096768
 20
506.8727326966076
 30
0.0
 10
-40.10867216714755
 20
506.80688179817
 30
0.0
 10
-40.10307414244424
 20
506.6821242704896
 30
0.0
 10
-40.05052936677669
 20
506.5114734399908
 30
0.0
 10
-39.96743951462811
 20
506.3693661639064
 30
0.0
 10
-39.88392259765418
 20
506.3088509598829
 30
0.0
 10
-39.84358970471527
 20
506.2796263117206
 30
0.0
 11
-40.11162697096768
 21
506.8727326966076
 31
0.0
 11
-40.09404686972942
 21
506.6765667482518
 31
0.0
 11
-40.04197915727512
 21
506.5082537000454
 31
0.0
 11
-39.95741521952858
 21
506.3742315347765
 31
0.0
 11
-39.84358970471527
 21
506.2796263117206
 31
0.0
  0
SPLINE
  5
181
330
1F
100
AcDbEntity
  8
0
  6
Continuous
 62
     7
100
AcDbSpline
210
0.0
220
0.0
230
1.0
 70
     8
 71
     3
 72
    19
 73
    15
 74
    13
 42
0.000000001
 43
0.0000000001
 44
0.00000001
 40
0.0
 40
0.0
 40
0.0
 40
0.0
 40
0.2391952226767116
 40
0.5067506047585392
 40
0.8173604626828866
 40
1.171227023291887
 40
1.558672682896857
 40
1.964241012589178
 40
2.36980934228157
 40
2.757255001886601
 40
3.111121562495519
 40
3.421731420419828
 40
3.689286802501789
 40
3.928482025178405
 40
3.928482025178405
 40
3.928482025178405
 40
3.928482025178405
 10
-36.43954841931227
 20
508.0987120845026
 30
0.0
 10
-36.36444941802825
 20
508.0684567690406
 30
0.0
 10
-36.20534730578706
 20
508.0043589371237
 30
0.0
 10
-35.92555327972634
 20
508.0459995507211
 30
0.0
 10
-35.64033667635604
 20
508.1719094807117
 30
0.0
 10
-35.35700788031598
 20
508.3835386667813
 30
0.0
 10
-35.09440579627802
 20
508.6633632362678
 30
0.0
 10
-34.8683606259669
 20
508.9946818832003
 30
0.0
 10
-34.6936815512183
 20
509.3557299211002
 30
0.0
 10
-34.58186334576037
 20
509.7228243682898
 30
0.0
 10
-34.5395017507867
 20
510.0739192476788
 30
0.0
 10
-34.57240696304306
 20
510.3839500014998
 30
0.0
 10
-34.67568008654928
 20
510.6473001480373
 30
0.0
 10
-34.81051541855879
 20
510.7533258402912
 30
0.0
 10
-34.87416007967261
 20
510.8033718313321
 30
0.0
 11
-36.43954841931227
 21
508.0987120845026
 31
0.0
 11
-36.21105070634727
 21
508.0279791218878
 31
0.0
 11
-35.94478570613552
 21
508.0542248068874
 31
0.0
 11
-35.65889850468577
 21
508.175661991801
 31
0.0
 11
-35.37287199167577
 21
508.3840135568648
 31
0.0
 11
-35.1061985464961
 21
508.6650818936778
 31
0.0
 11
-34.87705109386273
 21
508.9997117052052
 31
0.0
 11
-34.70104633923189
 21
509.3650991600508
 31
0.0
 11
-34.59017782185593
 21
509.7363434302796
 31
0.0
 11
-34.55200208964126
 21
510.0881447297073
 31
0.0
 11
-34.58911963721964
 21
510.396528856235
 31
0.0
 11
-34.69900208403856
 21
510.6404791261672
 31
0.0
 11
-34.87416007967261
 21
510.8033718313321
 31
0.0
  0
SPLINE
  5
182
330
1F
100
AcDbEntity
  8
0
  6
Continuous
 62
     7
100
AcDbSpline
210
0.0
220
0.0
230
1.0
 70
     8
 71
     3
 72
    19
 73
    15
 74
    13
 42
0.000000001
 43
0.0000000001
 44
0.00000001
 40
0.0
 40
0.0
 40
0.0
 40
0.0
 40
0.2162324808423667
 40
0.4581025455557987
 40
0.7388938574295674
 40
1.05878922847895
 40
1.40904010511173
 40
1.775673875655202
 40
2.14230764619869
 40
2.492558522831528
 40
2.812453893880869
 40
3.093245205754632
 40
3.335115270468056
 40
3.551347751310475
 40
3.551347751310475
 40
3.551347751310475
 40
3.551347751310475
 10
-36.36440977900958
 20
508.2285357523504
 30
0.0
 10
-36.29652028199244
 20
508.2011849472307
 30
0.0
 10
-36.15269197254563
 20
508.1432405090201
 30
0.0
 10
-35.89975817325196
 20
508.1808836205936
 30
0.0
 10
-35.64192236361799
 20
508.2947061977246
 30
0.0
 10
-35.38579313165028
 20
508.4860189817218
 30
0.0
 10
-35.14840084726828
 20
508.7389803927387
 30
0.0
 10
-34.9440560129457
 20
509.038492449864
 30
0.0
 10
-34.78614612929449
 20
509.3648798765875
 30
0.0
 10
-34.68506247159096
 20
509.6967332573041
 30
0.0
 10
-34.64676759009
 20
510.0141230284686
 30
0.0
 10
-34.67651390169902
 20
510.294390830294
 30
0.0
 10
-34.76987280792059
 20
510.5324593609802
 30
0.0
 10
-34.89176394645013
 20
510.628306587679
 30
0.0
 10
-34.94929871997533
 20
510.6735481634843
 30
0.0
 11
-36.36440977900958
 21
508.2285357523504
 31
0.0
 11
-36.15784784648922
 21
508.1645931541467
 31
0.0
 11
-35.91714428629781
 21
508.1883192533863
 31
0.0
 11
-35.65870225618721
 21
508.2980984685481
 31
0.0
 11
-35.40013428842616
 21
508.4864482833658
 31
0.0
 11
-35.15906149398376
 21
508.7405340598448
 31
0.0
 11
-34.95191219680319
 21
509.0430394094656
 31
0.0
 11
-34.79280389861692
 21
509.373349668646
 31
0.0
 11
-34.69257875890904
 21
509.7089544889328
 31
0.0
 11
-34.65806789698699
 21
510.0269828636156
 31
0.0
 11
-34.69162215999783
 21
510.3057621139966
 31
0.0
 11
-34.79095589192212
 21
510.5262931580152
 31
0.0
 11
-34.94929871997533
 21
510.6735481634843
 31
0.0
  0
SPLINE
  5
183
330
1F
100
AcDbEntity
  8
0
  6
Continuous
 62
     7
100
AcDbSpline
210
0.0
220
0.0
230
1.0
 70
     8
 71
     3
 72
     9
 73
     5
 74
     3
 42
0.000000001
 43
0.0000000001
 44
0.00000001
 40
0.0
 40
0.0
 40
0.0
 40
0.0
 40
0.1439275801559332
 40
0.2989149781450897
 40
0.2989149781450897
 40
0.2989149781450897
 40
0.2989149781450897
 10
-36.55337469243847
 20
508.1874669779194
 30
0.0
 10
-36.50585895209267
 20
508.1786630807604
 30
0.0
 10
-36.40717622083133
 20
508.160378788894
 30
0.0
 10
-36.30783370691272
 20
508.1751135620016
 30
0.0
 10
-36.25632461980979
 20
508.1827535512265
 30
0.0
 11
-36.55337469243847
 21
508.1874669779194
 31
0.0
 11
-36.41067450455022
 21
508.1687105117214
 31
0.0
 11
-36.25632461980979
 21
508.1827535512265
 31
0.0
  0
SPLINE
  5
184
330
1F
100
AcDbEntity
  8
0
  6
Continuous
 62
     7
100
AcDbSpline
210
0.0
220
0.0
230
1.0
 70
     8
 71
     3
 72
     9
 73
     5
 74
     3
 42
0.000000001
 43
0.0000000001
 44
0.00000001
 40
0.0
 40
0.0
 40
0.0
 40
0.0
 40
0.1549873979891908
 40
0.2989149781450574
 40
0.2989149781450574
 40
0.2989149781450574
 40
0.2989149781450574
 10
-34.85575878941114
 20
510.6026348856795
 30
0.0
 10
-34.87479346249851
 20
510.6511038108791
 30
0.0
 10
-34.91150452205679
 20
510.7445829353737
 30
0.0
 10
-34.97651744549911
 20
510.8210415291598
 30
0.0
 10
-35.0078211799617
 20
510.8578563413213
 30
0.0
 11
-34.85575878941114
 21
510.6026348856795
 31
0.0
 11
-34.92047155320636
 21
510.7434658200651
 31
0.0
 11
-35.0078211799617
 21
510.8578563413213
 31
0.0
  0
SPLINE
  5
185
330
1F
100
AcDbEntity
  8
0
  6
Continuous
 62
     7
100
AcDbSpline
210
0.0
220
0.0
230
1.0
 70
     8
 71
     3
 72
     9
 73
     5
 74
     3
 42
0.000000001
 43
0.0000000001
 44
0.00000001
 40
0.0
 40
0.0
 40
0.0
 40
0.0
 40
0.0862479990563711
 40
0.1743792236691076
 40
0.1743792236691076
 40
0.1743792236691076
 40
0.1743792236691076
 10
-34.94929871997533
 20
510.6735481634843
 30
0.0
 10
-34.97496383970609
 20
510.6868133542976
 30
0.0
 10
-35.02685448474866
 20
510.713633363066
 30
0.0
 10
-35.08399588363169
 20
510.7257859818017
 30
0.0
 10
-35.11287513811422
 20
510.7319279032797
 30
0.0
 11
-34.94929871997533
 21
510.6735481634843
 31
0.0
 11
-35.02757857180431
 21
510.709755652944
 31
0.0
 11
-35.11287513811422
 21
510.7319279032797
 31
0.0
  0
SPLINE
  5
186
330
1F
100
AcDbEntity
  8
0
  6
Continuous
 62
     7
100
AcDbSpline
210
0.0
220
0.0
230
1.0
 70
     8
 71
     3
 72
     9
 73
     5
 74
     3
 42
0.000000001
 43
0.0000000001
 44
0.00000001
 40
0.0
 40
0.0
 40
0.0
 40
0.0
 40
0.0954070786971288
 40
0.1928973715051709
 40
0.1928973715051709
 40
0.1928973715051709
 40
0.1928973715051709
 10
-34.87416007967261
 20
510.8033718313321
 30
0.0
 10
-34.90255069887203
 20
510.8180457149897
 30
0.0
 10
-34.95995185414789
 20
510.8477138682632
 30
0.0
 10
-35.02316136687204
 20
510.8611570285793
 30
0.0
 10
-35.05510744487052
 20
510.8679511895128
 30
0.0
 11
-34.87416007967261
 21
510.8033718313321
 31
0.0
 11
-34.96075283612062
 21
510.8434243639203
 31
0.0
 11
-35.05510744487052
 21
510.8679511895128
 31
0.0
  0
SPLINE
  5
187
330
1F
100
AcDbEntity
  8
0
  6
Continuous
 62
     7
100
AcDbSpline
210
0.0
220
0.0
230
1.0
 70
     8
 71
     3
 72
    19
 73
    15
 74
    13
 42
0.000000001
 43
0.0000000001
 44
0.00000001
 40
0.0
 40
0.0
 40
0.0
 40
0.0
 40
0.218688496329707
 40
0.469524681649569
 40
0.7554322146443229
 40
1.071495256165818
 40
1.407847679939935
 40
1.751881300863178
 40
2.090041809503879
 40
2.409494515519758
 40
2.699887182582529
 40
2.955484922072567
 40
3.177967517596541
 40
3.379300140327827
 40
3.379300140327827
 40
3.379300140327827
 40
3.379300140327827
 10
-35.11287513811422
 20
510.7319279032797
 30
0.0
 10
-35.18634649315224
 20
510.7353949553303
 30
0.0
 10
-35.34408965168991
 20
510.7428387029913
 30
0.0
 10
-35.58487738204796
 20
510.6514411487926
 30
0.0
 10
-35.82613704787367
 20
510.5000983817606
 30
0.0
 10
-36.05729363604135
 20
510.2866145523966
 30
0.0
 10
-36.26534679202534
 20
510.0264121656157
 30
0.0
 10
-36.43869886027171
 20
509.7331812966472
 30
0.0
 10
-36.56748200873864
 20
509.4238466771146
 30
0.0
 10
-36.64422978877838
 20
509.11611146389
 30
0.0
 10
-36.66502555724234
 20
508.8260265831267
 30
0.0
 10
-36.62619031892565
 20
508.5717661392649
 30
0.0
 10
-36.53185798022761
 20
508.3573193986191
 30
0.0
 10
-36.41833748355052
 20
508.2700112967163
 30
0.0
 10
-36.36440977900958
 20
508.2285357523504
 30
0.0
 11
-35.11287513811422
 21
510.7319279032797
 31
0.0
 11
-35.33153502717792
 21
510.728390764554
 31
0.0
 11
-35.56949728568922
 21
510.649063887971
 31
0.0
 11
-35.81264280924245
 21
510.498653208573
 31
0.0
 11
-36.04654483247434
 21
510.2860839538109
 31
0.0
 11
-36.25732483442711
 21
510.0239680596349
 31
0.0
 11
-36.4324767385676
 21
509.7278583817443
 31
0.0
 11
-36.561607618644
 21
509.4153239927581
 31
0.0
 11
-36.63705619963558
 21
509.1049088802001
 31
0.0
 11
-36.65434517570262
 21
508.8150313344653
 31
0.0
 11
-36.61244939704977
 21
508.5628906059376
 31
0.0
 11
-36.51385404108878
 21
508.3634477237434
 31
0.0
 11
-36.36440977900958
 21
508.2285357523504
 31
0.0
  0
SPLINE
  5
188
330
1F
100
AcDbEntity
  8
0
  6
Continuous
 62
     7
100
AcDbSpline
210
0.0
220
0.0
230
1.0
 70
     8
 71
     3
 72
     9
 73
     5
 74
     3
 42
0.000000001
 43
0.0000000001
 44
0.00000001
 40
0.0
 40
0.0
 40
0.0
 40
0.0
 40
0.0591007118601359
 40
0.1176040174496562
 40
0.1176040174496562
 40
0.1176040174496562
 40
0.1176040174496562
 10
-36.70543708298905
 20
508.4426884335613
 30
0.0
 10
-36.69086332690636
 20
508.4293636271368
 30
0.0
 10
-36.6618631177644
 20
508.4028487206151
 30
0.0
 10
-36.62849597843565
 20
508.3820978685107
 30
0.0
 10
-36.61189715242489
 20
508.3717751557564
 30
0.0
 11
-36.70543708298905
 21
508.4426884335613
 31
0.0
 11
-36.66061295588984
 21
508.404169712855
 31
0.0
 11
-36.61189715242489
 21
508.3717751557564
 31
0.0
  0
SPLINE
  5
189
330
1F
100
AcDbEntity
  8
0
  6
Continuous
 62
     7
100
AcDbSpline
210
0.0
220
0.0
230
1.0
 70
     8
 71
     3
 72
     9
 73
     5
 74
     3
 42
0.000000001
 43
0.0000000001
 44
0.00000001
 40
0.0
 40
0.0
 40
0.0
 40
0.0
 40
0.058503305589538
 40
0.1176040174497039
 40
0.1176040174497039
 40
0.1176040174497039
 40
0.1176040174497039
 10
-35.19678609339059
 20
510.8167875668904
 30
0.0
 10
-35.2140055259311
 20
510.8260380029085
 30
0.0
 10
-35.24862023552639
 20
510.8446333176323
 30
0.0
 10
-35.28605751969886
 20
510.8565707441523
 30
0.0
 10
-35.30487125259043
 20
510.8625697680142
 30
0.0
 11
-35.19678609339059
 21
510.8167875668904
 31
0.0
 11
-35.24914288819372
 21
510.8428912615483
 31
0.0
 11
-35.30487125259043
 21
510.8625697680142
 31
0.0
  0
SPLINE
  5
18A
330
1F
100
AcDbEntity
  8
0
  6
Continuous
 62
     7
100
AcDbSpline
210
0.0
220
0.0
230
1.0
 70
     8
 71
     3
 72
    19
 73
    15
 74
    13
 42
0.000000001
 43
0.0000000001
 44
0.00000001
 40
0.0
 40
0.0
 40
0.0
 40
0.0
 40
0.2419120534641852
 40
0.5193857093592983
 40
0.8356551043908829
 40
1.185282362429957
 40
1.557353627386437
 40
1.937921791898997
 40
2.311993150839554
 40
2.665370037875276
 40
2.986600864113337
 40
3.269341726135689
 40
3.51545079249725
 40
3.7381638714038
 40
3.7381638714038
 40
3.7381638714038
 40
3.7381638714038
 10
-35.05510744487052
 20
510.8679511895128
 30
0.0
 10
-35.13638106770087
 20
510.8717864240818
 30
0.0
 10
-35.31087571216904
 20
510.880020660412
 30
0.0
 10
-35.57723381988831
 20
510.7789171676109
 30
0.0
 10
-35.84411398127328
 20
510.6115026034829
 30
0.0
 10
-36.09981817163104
 20
510.3753479248582
 30
0.0
 10
-36.32996546805468
 20
510.087513426605
 30
0.0
 10
-36.52172660551911
 20
509.7631429965933
 30
0.0
 10
-36.66418584065281
 20
509.4209586831769
 30
0.0
 10
-36.74908382746585
 20
509.0805436245431
 30
0.0
 10
-36.77208799651304
 20
508.7596532697616
 30
0.0
 10
-36.72912866164086
 20
508.4783917172414
 30
0.0
 10
-36.62477873222811
 20
508.2411718693892
 30
0.0
 10
-36.49920295991153
 20
508.1445921115929
 30
0.0
 10
-36.43954841931227
 20
508.0987120845026
 30
0.0
 11
-35.05510744487052
 21
510.8679511895128
 31
0.0
 11
-35.29698785312682
 21
510.8640384254358
 31
0.0
 11
-35.56022043997562
 21
510.7762874557644
 31
0.0
 11
-35.82918672709203
 21
510.6099039608551
 31
0.0
 11
-36.08792790323348
 21
510.3747609799235
 31
0.0
 11
-36.32109162220776
 21
510.0848097695518
 31
0.0
 11
-36.51484372855788
 21
509.7572548161331
 31
0.0
 11
-36.65768762244771
 21
509.4115309345113
 31
0.0
 11
-36.74114844212866
 21
509.0681513852214
 31
0.0
 11
-36.76027341565415
 21
508.7474903833022
 31
0.0
 11
-36.71392852776384
 21
508.4685736482052
 31
0.0
 11
-36.60486286851493
 21
508.2479509909107
 31
0.0
 11
-36.43954841931227
 21
508.0987120845026
 31
0.0
  0
SPLINE
  5
18B
330
1F
100
AcDbEntity
  8
0
  6
Continuous
 62
     7
100
AcDbSpline
210
0.0
220
0.0
230
1.0
 70
     8
 71
     3
 72
     9
 73
     5
 74
     3
 42
0.000000001
 43
0.0000000001
 44
0.00000001
 40
0.0
 40
0.0
 40
0.0
 40
0.0
 40
0.2092522910079776
 40
0.4385519700761881
 40
0.4385519700761881
 40
0.4385519700761881
 40
0.4385519700761881
 10
-66.42242133745381
 20
492.2459420721216
 30
0.0
 10
-66.38691176953844
 20
492.1853848872431
 30
0.0
 10
-66.31249066227224
 20
492.0584688360593
 30
0.0
 10
-66.28073989414864
 20
491.914697674933
 30
0.0
 10
-66.26413881347602
 20
491.8395260081226
 30
0.0
 11
-66.42242133745381
 21
492.2459420721216
 31
0.0
 11
-66.32560723001843
 21
492.0604331765629
 31
0.0
 11
-66.26413881347602
 21
491.8395260081226
 31
0.0
  0
SPLINE
  5
18C
330
1F
100
AcDbEntity
  8
0
  6
Continuous
 62
     7
100
AcDbSpline
210
0.0
220
0.0
230
1.0
 70
     8
 71
     3
 72
    11
 73
     7
 74
     5
 42
0.000000001
 43
0.0000000001
 44
0.00000001
 40
0.0
 40
0.0
 40
0.0
 40
0.0
 40
0.1725011129695618
 40
0.3523006040648753
 40
0.5452876412112806
 40
0.755221741159498
 40
0.755221741159498
 40
0.755221741159498
 40
0.755221741159498
 10
-66.12125747492439
 20
492.1546696240882
 30
0.0
 10
-66.07355692673931
 20
492.1219724296481
 30
0.0
 10
-65.97613766913094
 20
492.0551946380961
 30
0.0
 10
-65.86486803502046
 20
491.908224963434
 30
0.0
 10
-65.77912522756561
 20
491.7324513237551
 30
0.0
 10
-65.74933192968923
 20
491.6010490110592
 30
0.0
 10
-65.73380872758611
 20
491.5325844293952
 30
0.0
 11
-66.12125747492439
 21
492.1546696240882
 31
0.0
 11
-65.98427661131836
 21
492.0498226993286
 31
0.0
 11
-65.87249463457543
 21
491.9089942660597
 31
0.0
 11
-65.78838498994725
 21
491.7353003831344
 31
0.0
 11
-65.73380872758611
 21
491.5325844293952
 31
0.0
  0
SPLINE
  5
18D
330
1F
100
AcDbEntity
  8
0
  6
Continuous
 62
     7
100
AcDbSpline
210
0.0
220
0.0
230
1.0
 70
     8
 71
     3
 72
    11
 73
     7
 74
     5
 42
0.000000001
 43
0.0000000001
 44
0.00000001
 40
0.0
 40
0.0
 40
0.0
 40
0.0
 40
0.2116323332618063
 40
0.406058066257084
 40
0.5870720112164628
 40
0.760654822900036
 40
0.760654822900036
 40
0.760654822900036
 40
0.760654822900036
 10
-66.85880872758611
 20
492.1788957889991
 30
0.0
 10
-66.791247595229
 20
492.1999697811539
 30
0.0
 10
-66.66161833169534
 20
492.2404043470173
 30
0.0
 10
-66.46507511078015
 20
492.2543561109397
 30
0.0
 10
-66.28087238607239
 20
492.231364329947
 30
0.0
 10
-66.1737138851356
 20
492.1798748494853
 30
0.0
 10
-66.12125747492439
 20
492.1546696240882
 30
0.0
 11
-66.85880872758611
 21
492.1788957889991
 31
0.0
 11
-66.65441046095987
 21
492.2337555471922
 31
0.0
 11
-66.4605120614046
 21
492.2480655817394
 31
0.0
 11
-66.28145732716452
 21
492.2215052471748
 31
0.0
 11
-66.12125747492439
 21
492.1546696240882
 31
0.0
  0
SPLINE
  5
18E
330
1F
100
AcDbEntity
  8
0
  6
Continuous
 62
     7
100
AcDbSpline
210
0.0
220
0.0
230
1.0
 70
     8
 71
     3
 72
    13
 73
     9
 74
     7
 42
0.000000001
 43
0.0000000001
 44
0.00000001
 40
0.0
 40
0.0
 40
0.0
 40
0.0
 40
0.3663279492268937
 40
0.7524198200709502
 40
1.148767915323792
 40
1.545018546208649
 40
1.930825847704315
 40
2.296706270183558
 40
2.296706270183558
 40
2.296706270183558
 40
2.296706270183558
 10
-67.38740329700147
 20
541.2099565054186
 30
0.0
 10
-67.47959708934209
 20
541.1296166559146
 30
0.0
 10
-67.6689586521046
 20
540.9646024951167
 30
0.0
 10
-67.91316944780876
 20
540.6676728439702
 30
0.0
 10
-68.12991711303842
 20
540.3391539299245
 30
0.0
 10
-68.30600953525497
 20
539.9872732263402
 30
0.0
 10
-68.44093223800229
 20
539.6275603446951
 30
0.0
 10
-68.4890044053726
 20
539.3812787238521
 30
0.0
 10
-68.51240329700147
 20
539.2614023153376
 30
0.0
 11
-67.38740329700147
 21
541.2099565054186
 31
0.0
 11
-67.65701373218867
 21
540.9619517072015
 31
0.0
 11
-67.90552201714571
 21
540.6664680934907
 31
0.0
 11
-68.12310596067853
 21
540.3351841650875
 31
0.0
 11
-68.30116594088466
 21
539.9811937598181
 31
0.0
 11
-68.4326640828564
 21
539.6184879375736
 31
0.0
 11
-68.51240329700147
 21
539.2614023153376
 31
0.0
  0
SPLINE
  5
18F
330
1F
100
AcDbEntity
  8
0
  6
Continuous
 62
     7
100
AcDbSpline
210
0.0
220
0.0
230
1.0
 70
     8
 71
     3
 72
    13
 73
     9
 74
     7
 42
0.000000001
 43
0.0000000001
 44
0.00000001
 40
0.0
 40
0.0
 40
0.0
 40
0.0
 40
0.3663279492267293
 40
0.7524198200709118
 40
1.148767915323726
 40
1.545018546208627
 40
1.93082584770429
 40
2.296706270183646
 40
2.296706270183646
 40
2.296706270183646
 40
2.296706270183646
 10
-32.38561762826737
 20
512.1311028791147
 30
0.0
 10
-32.47781142060798
 20
512.0507630296105
 30
0.0
 10
-32.66717298337061
 20
511.885748868813
 30
0.0
 10
-32.91138377907452
 20
511.5888192176661
 30
0.0
 10
-33.12813144430439
 20
511.2603003036207
 30
0.0
 10
-33.30422386652086
 20
510.9084196000364
 30
0.0
 10
-33.43914656926819
 20
510.548706718391
 30
0.0
 10
-33.48721873663852
 20
510.3024250975483
 30
0.0
 10
-33.51061762826737
 20
510.1825486890336
 30
0.0
 11
-32.38561762826737
 21
512.1311028791147
 31
0.0
 11
-32.65522806345456
 21
511.8830980808977
 31
0.0
 11
-32.9037363484116
 21
511.5876144671868
 31
0.0
 11
-33.12132029194444
 21
511.2563305387837
 31
0.0
 11
-33.29938027215056
 21
510.9023401335141
 31
0.0
 11
-33.4308784141223
 21
510.5396343112697
 31
0.0
 11
-33.51061762826737
 21
510.1825486890336
 31
0.0
  0
DIMENSION
  5
19D
330
1F
100
AcDbEntity
  8
1
100
AcDbDimension
  2
*D4
 10
-309.2331258814004
 20
339.0511453660616
 30
0.0
 11
-312.8040151263924
 21
345.8040151263932
 31
0.0
 70
    33
  1
<>
 71
     5
 42
-1.0
 53
44.99999999999898
  3
ME10_DIM_10
100
AcDbAlignedDimension
 13
-288.2475456090639
 23
324.4295261244034
 33
0.0
 14
-291.4295261244034
 24
321.247545609064
 34
0.0
  0
DIMENSION
  5
1A8
330
1F
100
AcDbEntity
  8
1
100
AcDbDimension
  2
*D5
 10
-313.5000000000001
 20
320.5
 30
0.0
 11
-320.5000000000001
 21
260.0000000000001
 31
0.0
 70
    33
  1
<>
 71
     5
 42
-1.0
 53
-89.99999999999991
  3
ME10_DIM_11
100
AcDbAlignedDimension
 13
-293.8999999999999
 23
199.5000000000001
 33
0.0
 14
-293.9000000000001
 24
320.5
 34
0.0
  0
DIMENSION
  5
1B3
330
1F
100
AcDbEntity
  8
1
100
AcDbDimension
  2
*D6
 10
-287.5000000000001
 20
346.5
 30
0.0
 11
-238.0
 21
353.5
 31
0.0
 70
    33
  1
<>
 71
     5
 42
-1.0
 53
0.00013888888889
  3
ME10_DIM_12
100
AcDbAlignedDimension
 13
-188.4999999999999
 23
326.9000000000002
 33
0.0
 14
-287.5000000000001
 24
326.9000000000002
 34
0.0
  0
DIMENSION
  5
1BE
330
1F
100
AcDbEntity
  8
1
100
AcDbDimension
  2
*D7
 10
-293.5000000000001
 20
173.5
 30
0.0
 11
-238.0
 21
180.5
 31
0.0
 70
    33
  1
<>
 71
     5
 42
-1.0
 53
0.00013888888889
  3
ME10_DIM_13
100
AcDbAlignedDimension
 13
-182.4999999999999
 23
193.4999999999999
 33
0.0
 14
-293.5000000000001
 24
193.5000000000001
 34
0.0
  0
DIMENSION
  5
1CB
330
1F
100
AcDbEntity
  8
1
100
AcDbDimension
  2
*D8
 10
-162.5000000000004
 20
457.9
 30
0.0
 11
-169.8000000000004
 21
470.4175634067807
 31
0.0
 70
    32
  1
<>
 71
     5
 42
-1.0
 53
90.0
  3
ME10_DIM_14
100
AcDbAlignedDimension
 13
-182.4999999999999
 23
456.4000000000001
 33
0.0
 14
-182.5
 24
457.9000000000001
 34
0.0
 50
90.0
100
AcDbRotatedDimension
  0
DIMENSION
  5
1D6
330
1F
100
AcDbEntity
  8
1
100
AcDbDimension
  2
*D9
 10
-162.5
 20
326.4999999999999
 30
0.0
 11
-169.5
 21
259.9999999999999
 31
0.0
 70
    33
  1
<>
 71
     5
 42
-1.0
 53
-89.99999999999991
  3
ME10_DIM_15
100
AcDbAlignedDimension
 13
-182.4999999999999
 23
193.4999999999999
 33
0.0
 14
-182.5000000000001
 24
326.5
 34
0.0
  0
ENDSEC
  0
SECTION
  2
OBJECTS
  0
DICTIONARY
  5
C
330
0
100
AcDbDictionary
281
     1
  3
ACAD_GROUP
350
D
  3
ACAD_LAYOUT
350
1A
  3
ACAD_MATERIAL
350
43
  3
ACAD_MLEADERSTYLE
350
1D9
  3
ACAD_MLINESTYLE
350
17
  3
ACAD_PLOTSETTINGS
350
19
  3
ACAD_PLOTSTYLENAME
350
E
  3
ACAD_SCALELIST
350
47
  3
ACAD_VISUALSTYLE
350
2A
  3
AcDbVariableDictionary
350
1D7
  0
DICTIONARY
  5
D
102
{ACAD_REACTORS
330
C
102
}
330
C
100
AcDbDictionary
281
     1
  0
DICTIONARY
  5
1A
102
{ACAD_REACTORS
330
C
102
}
330
C
100
AcDbDictionary
281
     1
  3
Layout1
350
1E
  3
Layout2
350
26
  3
Model
350
22
  0
DICTIONARY
  5
43
102
{ACAD_REACTORS
330
C
102
}
330
C
100
AcDbDictionary
281
     1
  3
ByBlock
350
45
  3
ByLayer
350
44
  3
Global
350
46
  0
DICTIONARY
  5
1D9
102
{ACAD_REACTORS
330
C
102
}
330
C
100
AcDbDictionary
281
     1
  0
DICTIONARY
  5
17
102
{ACAD_REACTORS
330
C
102
}
330
C
100
AcDbDictionary
281
     1
  3
Standard
350
18
  0
DICTIONARY
  5
19
102
{ACAD_REACTORS
330
C
102
}
330
C
100
AcDbDictionary
281
     1
  0
ACDBDICTIONARYWDFLT
  5
E
102
{ACAD_REACTORS
330
C
102
}
330
C
100
AcDbDictionary
281
     1
  3
Normal
350
F
100
AcDbDictionaryWithDefault
340
F
  0
DICTIONARY
  5
47
102
{ACAD_REACTORS
330
C
102
}
330
C
100
AcDbDictionary
281
     1
  3
A0
350
48
  3
A1
350
49
  3
A2
350
4A
  3
A3
350
4B
  3
A4
350
4C
  3
A5
350
4D
  3
A6
350
4E
  3
A7
350
4F
  3
A8
350
50
  3
A9
350
51
  3
B0
350
52
  3
B1
350
53
  3
B2
350
54
  3
B3
350
55
  3
B4
350
56
  3
B5
350
57
  3
B6
350
58
  3
B7
350
59
  3
B8
350
5A
  3
B9
350
5B
  3
C0
350
5C
  3
C1
350
5D
  3
C2
350
5E
  3
C3
350
5F
  3
C4
350
60
  3
C5
350
61
  3
C6
350
62
  3
C7
350
63
  3
C8
350
64
  3
C9
350
65
  3
D0
350
66
  3
D1
350
67
  3
D2
350
68
  0
DICTIONARY
  5
2A
102
{ACAD_REACTORS
330
C
102
}
330
C
100
AcDbDictionary
281
     1
  3
2dWireframe
350
2F
  3
Basic
350
32
  3
Brighten
350
36
  3
ColorChange
350
3A
  3
Conceptual
350
34
  3
Dim
350
35
  3
EdgeColorOff
350
3D
  3
Facepattern
350
39
  3
Flat
350
2B
  3
FlatWithEdges
350
2C
  3
Gouraud
350
2D
  3
GouraudWithEdges
350
2E
  3
Hidden
350
31
  3
JitterOff
350
3B
  3
Linepattern
350
38
  3
OverhangOff
350
3C
  3
Realistic
350
33
  3
Shaded
350
42
  3
Shaded with edges
350
41
  3
Shades of Gray
350
3E
  3
Sketchy
350
3F
  3
Thicken
350
37
  3
Wireframe
350
30
  3
X-Ray
350
40
  0
DICTIONARY
  5
1D7
102
{ACAD_REACTORS
330
C
102
}
330
C
100
AcDbDictionary
281
     1
  3
CANNOSCALE
350
1DE
  3
DIMASSOC
350
1DC
  3
HIDETEXT
350
1DD
  3
MSLTSCALE
350
1DF
  0
LAYOUT
  5
1E
102
{ACAD_REACTORS
330
1A
102
}
330
1A
100
AcDbPlotSettings
  1

  2
none_device
  4

  6

 40
0.0
 41
0.0
 42
0.0
 43
0.0
 44
0.0
 45
0.0
 46
0.0
 47
0.0
 48
0.0
 49
0.0
140
0.0
141
0.0
142
1.0
143
1.0
 70
   688
 72
     0
 73
     0
 74
     5
  7

 75
    16
147
1.0
148
0.0
149
0.0
100
AcDbLayout
  1
Layout1
 70
     1
 71
     1
 10
0.0
 20
0.0
 11
12.0
 21
9.0
 12
0.0
 22
0.0
 32
0.0
 14
1.00000000000000E+20
 24
1.00000000000000E+20
 34
1.00000000000000E+20
 15
-1.00000000000000E+20
 25
-1.00000000000000E+20
 35
-1.00000000000000E+20
146
0.0
 13
0.0
 23
0.0
 33
0.0
 16
1.0
 26
0.0
 36
0.0
 17
0.0
 27
1.0
 37
0.0
 76
     0
330
1B
  0
LAYOUT
  5
26
102
{ACAD_REACTORS
330
1A
102
}
330
1A
100
AcDbPlotSettings
  1

  2
none_device
  4

  6

 40
0.0
 41
0.0
 42
0.0
 43
0.0
 44
0.0
 45
0.0
 46
0.0
 47
0.0
 48
0.0
 49
0.0
140
0.0
141
0.0
142
1.0
143
1.0
 70
   688
 72
     0
 73
     0
 74
     5
  7

 75
    16
147
1.0
148
0.0
149
0.0
100
AcDbLayout
  1
Layout2
 70
     1
 71
     2
 10
0.0
 20
0.0
 11
0.0
 21
0.0
 12
0.0
 22
0.0
 32
0.0
 14
0.0
 24
0.0
 34
0.0
 15
0.0
 25
0.0
 35
0.0
146
0.0
 13
0.0
 23
0.0
 33
0.0
 16
1.0
 26
0.0
 36
0.0
 17
0.0
 27
1.0
 37
0.0
 76
     0
330
23
  0
LAYOUT
  5
22
102
{ACAD_REACTORS
330
1A
102
}
330
1A
100
AcDbPlotSettings
  1

  2
none_device
  4
Letter_(8.50_x_11.00_Inches)
  6

 40
6.35
 41
6.35
 42
6.35000508
 43
6.35000508
 44
215.9
 45
279.4
 46
0.0
 47
0.0
 48
0.0
 49
0.0
140
0.0
141
0.0
142
1.0
143
1.0
 70
  1712
 72
     0
 73
     0
 74
     0
  7

 75
     0
147
1.0
148
0.0
149
0.0
100
AcDbLayout
  1
Model
 70
     1
 71
     0
 10
0.0
 20
0.0
 11
12.0
 21
9.0
 12
0.0
 22
0.0
 32
0.0
 14
-420.0000000000002
 24
0.0
 34
0.0
 15
0.0
 25
594.0000000000002
 35
0.0
146
0.0
 13
0.0
 23
0.0
 33
0.0
 16
1.0
 26
0.0
 36
0.0
 17
0.0
 27
1.0
 37
0.0
 76
     0
330
1F
331
29
  0
MATERIAL
  5
45
102
{ACAD_REACTORS
330
43
102
}
102
{ACAD_XDICTIONARY
360
212
102
}
330
43
100
AcDbMaterial
  1
ByBlock
  0
MATERIAL
  5
44
102
{ACAD_REACTORS
330
43
102
}
102
{ACAD_XDICTIONARY
360
210
102
}
330
43
100
AcDbMaterial
  1
ByLayer
  0
MATERIAL
  5
46
102
{ACAD_REACTORS
330
43
102
}
102
{ACAD_XDICTIONARY
360
214
102
}
330
43
100
AcDbMaterial
  1
Global
  0
MLINESTYLE
  5
18
102
{ACAD_REACTORS
330
17
102
}
330
17
100
AcDbMlineStyle
  2
Standard
 70
     0
  3

 62
   256
 51
90.0
 52
90.0
 71
     2
 49
0.5
 62
   256
  6
BYLAYER
 49
-0.5
 62
   256
  6
BYLAYER
  0
ACDBPLACEHOLDER
  5
F
102
{ACAD_REACTORS
330
E
102
}
330
E
  0
SCALE
  5
48
102
{ACAD_REACTORS
330
47
102
}
330
47
100
AcDbScale
 70
     0
300
1:1
140
1.0
141
1.0
290
     1
  0
SCALE
  5
49
102
{ACAD_REACTORS
330
47
102
}
330
47
100
AcDbScale
 70
     0
300
1:2
140
1.0
141
2.0
290
     0
  0
SCALE
  5
4A
102
{ACAD_REACTORS
330
47
102
}
330
47
100
AcDbScale
 70
     0
300
1:4
140
1.0
141
4.0
290
     0
  0
SCALE
  5
4B
102
{ACAD_REACTORS
330
47
102
}
330
47
100
AcDbScale
 70
     0
300
1:5
140
1.0
141
5.0
290
     0
  0
SCALE
  5
4C
102
{ACAD_REACTORS
330
47
102
}
330
47
100
AcDbScale
 70
     0
300
1:8
140
1.0
141
8.0
290
     0
  0
SCALE
  5
4D
102
{ACAD_REACTORS
330
47
102
}
330
47
100
AcDbScale
 70
     0
300
1:10
140
1.0
141
10.0
290
     0
  0
SCALE
  5
4E
102
{ACAD_REACTORS
330
47
102
}
330
47
100
AcDbScale
 70
     0
300
1:16
140
1.0
141
16.0
290
     0
  0
SCALE
  5
4F
102
{ACAD_REACTORS
330
47
102
}
330
47
100
AcDbScale
 70
     0
300
1:20
140
1.0
141
20.0
290
     0
  0
SCALE
  5
50
102
{ACAD_REACTORS
330
47
102
}
330
47
100
AcDbScale
 70
     0
300
1:30
140
1.0
141
30.0
290
     0
  0
SCALE
  5
51
102
{ACAD_REACTORS
330
47
102
}
330
47
100
AcDbScale
 70
     0
300
1:40
140
1.0
141
40.0
290
     0
  0
SCALE
  5
52
102
{ACAD_REACTORS
330
47
102
}
330
47
100
AcDbScale
 70
     0
300
1:50
140
1.0
141
50.0
290
     0
  0
SCALE
  5
53
102
{ACAD_REACTORS
330
47
102
}
330
47
100
AcDbScale
 70
     0
300
1:100
140
1.0
141
100.0
290
     0
  0
SCALE
  5
54
102
{ACAD_REACTORS
330
47
102
}
330
47
100
AcDbScale
 70
     0
300
2:1
140
2.0
141
1.0
290
     0
  0
SCALE
  5
55
102
{ACAD_REACTORS
330
47
102
}
330
47
100
AcDbScale
 70
     0
300
4:1
140
4.0
141
1.0
290
     0
  0
SCALE
  5
56
102
{ACAD_REACTORS
330
47
102
}
330
47
100
AcDbScale
 70
     0
300
8:1
140
8.0
141
1.0
290
     0
  0
SCALE
  5
57
102
{ACAD_REACTORS
330
47
102
}
330
47
100
AcDbScale
 70
     0
300
10:1
140
10.0
141
1.0
290
     0
  0
SCALE
  5
58
102
{ACAD_REACTORS
330
47
102
}
330
47
100
AcDbScale
 70
     0
300
100:1
140
100.0
141
1.0
290
     0
  0
SCALE
  5
59
102
{ACAD_REACTORS
330
47
102
}
330
47
100
AcDbScale
 70
     0
300
1/128" = 1'-0"
140
0.0078125
141
12.0
290
     0
  0
SCALE
  5
5A
102
{ACAD_REACTORS
330
47
102
}
330
47
100
AcDbScale
 70
     0
300
1/64" = 1'-0"
140
0.015625
141
12.0
290
     0
  0
SCALE
  5
5B
102
{ACAD_REACTORS
330
47
102
}
330
47
100
AcDbScale
 70
     0
300
1/32" = 1'-0"
140
0.03125
141
12.0
290
     0
  0
SCALE
  5
5C
102
{ACAD_REACTORS
330
47
102
}
330
47
100
AcDbScale
 70
     0
300
1/16" = 1'-0"
140
0.0625
141
12.0
290
     0
  0
SCALE
  5
5D
102
{ACAD_REACTORS
330
47
102
}
330
47
100
AcDbScale
 70
     0
300
3/32" = 1'-0"
140
0.09375
141
12.0
290
     0
  0
SCALE
  5
5E
102
{ACAD_REACTORS
330
47
102
}
330
47
100
AcDbScale
 70
     0
300
1/8" = 1'-0"
140
0.125
141
12.0
290
     0
  0
SCALE
  5
5F
102
{ACAD_REACTORS
330
47
102
}
330
47
100
AcDbScale
 70
     0
300
3/16" = 1'-0"
140
0.1875
141
12.0
290
     0
  0
SCALE
  5
60
102
{ACAD_REACTORS
330
47
102
}
330
47
100
AcDbScale
 70
     0
300
1/4" = 1'-0"
140
0.25
141
12.0
290
     0
  0
SCALE
  5
61
102
{ACAD_REACTORS
330
47
102
}
330
47
100
AcDbScale
 70
     0
300
3/8" = 1'-0"
140
0.375
141
12.0
290
     0
  0
SCALE
  5
62
102
{ACAD_REACTORS
330
47
102
}
330
47
100
AcDbScale
 70
     0
300
1/2" = 1'-0"
140
0.5
141
12.0
290
     0
  0
SCALE
  5
63
102
{ACAD_REACTORS
330
47
102
}
330
47
100
AcDbScale
 70
     0
300
3/4" = 1'-0"
140
0.75
141
12.0
290
     0
  0
SCALE
  5
64
102
{ACAD_REACTORS
330
47
102
}
330
47
100
AcDbScale
 70
     0
300
1" = 1'-0"
140
1.0
141
12.0
290
     0
  0
SCALE
  5
65
102
{ACAD_REACTORS
330
47
102
}
330
47
100
AcDbScale
 70
     0
300
1-1/2" = 1'-0"
140
1.5
141
12.0
290
     0
  0
SCALE
  5
66
102
{ACAD_REACTORS
330
47
102
}
330
47
100
AcDbScale
 70
     0
300
3" = 1'-0"
140
3.0
141
12.0
290
     0
  0
SCALE
  5
67
102
{ACAD_REACTORS
330
47
102
}
330
47
100
AcDbScale
 70
     0
300
6" = 1'-0"
140
6.0
141
12.0
290
     0
  0
SCALE
  5
68
102
{ACAD_REACTORS
330
47
102
}
330
47
100
AcDbScale
 70
     0
300
1'-0" = 1'-0"
140
12.0
141
12.0
290
     0
  0
VISUALSTYLE
  5
2F
102
{ACAD_REACTORS
330
2A
102
}
102
{ACAD_XDICTIONARY
360
1E8
102
}
330
2A
100
AcDbVisualStyle
  2
2dWireframe
 70
     4
 71
     0
 72
     2
 73
     0
 90
        0
 40
0.6
 41
30.0
 62
     5
 63
     7
 74
     1
 91
        4
 64
     7
 65
   257
 75
     1
175
     1
 42
1.0
 92
        0
 66
   257
 43
1.0
 76
     1
 77
     6
 78
     2
 67
     7
 79
     5
170
     0
171
     0
290
     0
174
     0
 93
        1
 44
0.0
173
     0
291
     0
 45
0.0
1001
ACAD
1000
AcDbSavedByObjectVersion
1070
     0
  0
VISUALSTYLE
  5
32
102
{ACAD_REACTORS
330
2A
102
}
102
{ACAD_XDICTIONARY
360
1EE
102
}
330
2A
100
AcDbVisualStyle
  2
Basic
 70
     7
 71
     1
 72
     0
 73
     1
 90
        0
 40
0.6
 41
30.0
 62
     5
 63
     7
 74
     0
 91
        4
 64
     7
 65
   257
 75
     1
175
     1
 42
1.0
 92
        8
 66
     7
 43
1.0
 76
     1
 77
     6
 78
     2
 67
     7
 79
     5
170
     0
171
     0
290
     0
174
     0
 93
        1
 44
0.0
173
     0
291
     1
 45
0.0
1001
ACAD
1000
AcDbSavedByObjectVersion
1070
     0
  0
VISUALSTYLE
  5
36
102
{ACAD_REACTORS
330
2A
102
}
102
{ACAD_XDICTIONARY
360
1F6
102
}
330
2A
100
AcDbVisualStyle
  2
Brighten
 70
    12
 71
     2
 72
     2
 73
     0
 90
        0
 40
0.6
 41
30.0
 62
     5
 63
     7
 74
     1
 91
        4
 64
     7
 65
   257
 75
     1
175
     1
 42
1.0
 92
        8
 66
     7
 43
1.0
 76
     1
 77
     6
 78
     2
 67
     7
 79
     5
170
     0
171
     0
290
     0
174
     0
 93
        1
 44
50.0
173
     0
291
     1
 45
0.0
1001
ACAD
1000
AcDbSavedByObjectVersion
1070
     0
  0
VISUALSTYLE
  5
3A
102
{ACAD_REACTORS
330
2A
102
}
102
{ACAD_XDICTIONARY
360
1FE
102
}
330
2A
100
AcDbVisualStyle
  2
ColorChange
 70
    16
 71
     2
 72
     2
 73
     3
 90
        0
 40
0.6
 41
30.0
 62
     5
 63
     8
 74
     1
 91
        4
 64
     7
 65
   257
 75
     1
175
     1
 42
1.0
 92
        8
 66
     8
 43
1.0
 76
     1
 77
     6
 78
     2
 67
     7
 79
     5
170
     0
171
     0
290
     0
174
     0
 93
        1
 44
0.0
173
     0
291
     1
 45
0.0
1001
ACAD
1000
AcDbSavedByObjectVersion
1070
     0
  0
VISUALSTYLE
  5
34
102
{ACAD_REACTORS
330
2A
102
}
102
{ACAD_XDICTIONARY
360
1F2
102
}
330
2A
100
AcDbVisualStyle
  2
Conceptual
 70
     9
 71
     3
 72
     2
 73
     0
 90
        0
 40
0.6
 41
30.0
 62
     5
 63
     7
 74
     2
 91
        2
 64
     7
 65
   257
 75
     1
175
     1
 42
179.0
 92
        8
 66
     7
 43
1.0
 76
     1
 77
     6
 78
     2
 67
     7
 79
     3
170
     0
171
     0
290
     0
174
     0
 93
        1
 44
0.0
173
     0
291
     0
 45
0.0
1001
ACAD
1000
AcDbSavedByObjectVersion
1070
     0
  0
VISUALSTYLE
  5
35
102
{ACAD_REACTORS
330
2A
102
}
102
{ACAD_XDICTIONARY
360
1F4
102
}
330
2A
100
AcDbVisualStyle
  2
Dim
 70
    11
 71
     2
 72
     2
 73
     0
 90
        0
 40
0.6
 41
30.0
 62
     5
 63
     7
 74
     1
 91
        4
 64
     7
 65
   257
 75
     1
175
     1
 42
1.0
 92
        8
 66
     7
 43
1.0
 76
     1
 77
     6
 78
     2
 67
     7
 79
     5
170
     0
171
     0
290
     0
174
     0
 93
        1
 44
-50.0
173
     0
291
     1
 45
0.0
1001
ACAD
1000
AcDbSavedByObjectVersion
1070
     0
  0
VISUALSTYLE
  5
3D
102
{ACAD_REACTORS
330
2A
102
}
102
{ACAD_XDICTIONARY
360
204
102
}
330
2A
100
AcDbVisualStyle
  2
EdgeColorOff
 70
    22
 71
     2
 72
     2
 73
     0
 90
        0
 40
0.6
 41
30.0
 62
     5
 63
     7
 74
     1
 91
        4
 64
     7
 65
   257
 75
     1
175
     1
 42
1.0
 92
        8
 66
     7
 43
1.0
 76
     1
 77
     6
 78
     2
 67
     7
 79
     5
170
     0
171
     0
290
     0
174
     0
 93
        1
 44
0.0
173
     0
291
     1
 45
0.0
1001
ACAD
1000
AcDbSavedByObjectVersion
1070
     0
  0
VISUALSTYLE
  5
39
102
{ACAD_REACTORS
330
2A
102
}
102
{ACAD_XDICTIONARY
360
1FC
102
}
330
2A
100
AcDbVisualStyle
  2
Facepattern
 70
    15
 71
     2
 72
     2
 73
     0
 90
        0
 40
0.6
 41
30.0
 62
     5
 63
     7
 74
     1
 91
        4
 64
     7
 65
   257
 75
     1
175
     1
 42
1.0
 92
        8
 66
     7
 43
1.0
 76
     1
 77
     6
 78
     2
 67
     7
 79
     5
170
     0
171
     0
290
     0
174
     0
 93
        1
 44
0.0
173
     0
291
     1
 45
0.0
1001
ACAD
1000
AcDbSavedByObjectVersion
1070
     0
  0
VISUALSTYLE
  5
2B
102
{ACAD_REACTORS
330
2A
102
}
102
{ACAD_XDICTIONARY
360
1E0
102
}
330
2A
100
AcDbVisualStyle
  2
Flat
 70
     0
 71
     2
 72
     1
 73
     1
 90
        2
 40
0.6
 41
30.0
 62
     5
 63
     7
 74
     0
 91
        0
 64
     7
 65
   257
 75
     1
175
     1
 42
1.0
 92
        8
 66
     7
 43
1.0
 76
     1
 77
     6
 78
     2
 67
     7
 79
     5
170
     0
171
     0
290
     0
174
     0
 93
       13
 44
0.0
173
     0
291
     1
 45
0.0
1001
ACAD
1000
AcDbSavedByObjectVersion
1070
     0
  0
VISUALSTYLE
  5
2C
102
{ACAD_REACTORS
330
2A
102
}
102
{ACAD_XDICTIONARY
360
1E2
102
}
330
2A
100
AcDbVisualStyle
  2
FlatWithEdges
 70
     1
 71
     2
 72
     1
 73
     1
 90
        2
 40
0.6
 41
30.0
 62
     5
 63
     7
 74
     1
 91
        0
 64
     7
 65
   257
 75
     1
175
     1
 42
1.0
 92
        0
 66
   257
 43
1.0
 76
     1
 77
     6
 78
     2
 67
     7
 79
     5
170
     0
171
     0
290
     0
174
     0
 93
       13
 44
0.0
173
     0
291
     1
 45
0.0
1001
ACAD
1000
AcDbSavedByObjectVersion
1070
     0
  0
VISUALSTYLE
  5
2D
102
{ACAD_REACTORS
330
2A
102
}
102
{ACAD_XDICTIONARY
360
1E4
102
}
330
2A
100
AcDbVisualStyle
  2
Gouraud
 70
     2
 71
     2
 72
     2
 73
     1
 90
        2
 40
0.6
 41
30.0
 62
     5
 63
     7
 74
     0
 91
        0
 64
     7
 65
   257
 75
     1
175
     1
 42
1.0
 92
        0
 66
     7
 43
1.0
 76
     1
 77
     6
 78
     2
 67
     7
 79
     5
170
     0
171
     0
290
     0
174
     0
 93
       13
 44
0.0
173
     0
291
     1
 45
0.0
1001
ACAD
1000
AcDbSavedByObjectVersion
1070
     0
  0
VISUALSTYLE
  5
2E
102
{ACAD_REACTORS
330
2A
102
}
102
{ACAD_XDICTIONARY
360
1E6
102
}
330
2A
100
AcDbVisualStyle
  2
GouraudWithEdges
 70
     3
 71
     2
 72
     2
 73
     1
 90
        2
 40
0.6
 41
30.0
 62
     5
 63
     7
 74
     1
 91
        0
 64
     7
 65
   257
 75
     1
175
     1
 42
1.0
 92
        0
 66
   257
 43
1.0
 76
     1
 77
     6
 78
     2
 67
     7
 79
     5
170
     0
171
     0
290
     0
174
     0
 93
       13
 44
0.0
173
     0
291
     1
 45
0.0
1001
ACAD
1000
AcDbSavedByObjectVersion
1070
     0
  0
VISUALSTYLE
  5
31
102
{ACAD_REACTORS
330
2A
102
}
102
{ACAD_XDICTIONARY
360
1EC
102
}
330
2A
100
AcDbVisualStyle
  2
Hidden
 70
     6
 71
     1
 72
     2
 73
     2
 90
        0
 40
0.6
 41
30.0
 62
     5
 63
     7
 74
     2
 91
        2
 64
     7
 65
   257
 75
     2
175
     1
 42
40.0
 92
        0
 66
   257
 43
1.0
 76
     1
 77
     6
 78
     2
 67
     7
 79
     3
170
     0
171
     0
290
     0
174
     0
 93
        1
 44
0.0
173
     0
291
     0
 45
0.0
1001
ACAD
1000
AcDbSavedByObjectVersion
1070
     0
  0
VISUALSTYLE
  5
3B
102
{ACAD_REACTORS
330
2A
102
}
102
{ACAD_XDICTIONARY
360
200
102
}
330
2A
100
AcDbVisualStyle
  2
JitterOff
 70
    20
 71
     2
 72
     2
 73
     0
 90
        0
 40
0.6
 41
30.0
 62
     5
 63
     7
 74
     1
 91
        4
 64
     7
 65
   257
 75
     1
175
     1
 42
1.0
 92
       10
 66
     7
 43
1.0
 76
     1
 77
     6
 78
     2
 67
     7
 79
     5
170
     0
171
     0
290
     0
174
     0
 93
        1
 44
0.0
173
     0
291
     1
 45
0.0
1001
ACAD
1000
AcDbSavedByObjectVersion
1070
     0
  0
VISUALSTYLE
  5
38
102
{ACAD_REACTORS
330
2A
102
}
102
{ACAD_XDICTIONARY
360
1FA
102
}
330
2A
100
AcDbVisualStyle
  2
Linepattern
 70
    14
 71
     2
 72
     2
 73
     0
 90
        0
 40
0.6
 41
30.0
 62
     5
 63
     7
 74
     1
 91
        4
 64
     7
 65
   257
 75
     7
175
     7
 42
1.0
 92
        8
 66
     7
 43
1.0
 76
     1
 77
     6
 78
     2
 67
     7
 79
     5
170
     0
171
     0
290
     0
174
     0
 93
        1
 44
0.0
173
     0
291
     1
 45
0.0
1001
ACAD
1000
AcDbSavedByObjectVersion
1070
     0
  0
VISUALSTYLE
  5
3C
102
{ACAD_REACTORS
330
2A
102
}
102
{ACAD_XDICTIONARY
360
202
102
}
330
2A
100
AcDbVisualStyle
  2
OverhangOff
 70
    21
 71
     2
 72
     2
 73
     0
 90
        0
 40
0.6
 41
30.0
 62
     5
 63
     7
 74
     1
 91
        4
 64
     7
 65
   257
 75
     1
175
     1
 42
1.0
 92
        9
 66
     7
 43
1.0
 76
     1
 77
     6
 78
     2
 67
     7
 79
     5
170
     0
171
     0
290
     0
174
     0
 93
        1
 44
0.0
173
     0
291
     1
 45
0.0
1001
ACAD
1000
AcDbSavedByObjectVersion
1070
     0
  0
VISUALSTYLE
  5
33
102
{ACAD_REACTORS
330
2A
102
}
102
{ACAD_XDICTIONARY
360
1F0
102
}
330
2A
100
AcDbVisualStyle
  2
Realistic
 70
     8
 71
     2
 72
     3
 73
     0
 90
        2
 40
0.6
 41
30.0
 62
     5
 63
     7
 74
     0
 91
        0
 64
     7
 65
   257
 75
     1
175
     1
 42
1.0
 92
        8
 66
   257
 43
1.0
 76
     1
 77
     6
 78
     2
 67
     7
 79
     3
170
     0
171
     0
290
     0
174
     0
 93
       13
 44
0.0
173
     0
291
     0
 45
0.0
1001
ACAD
1000
AcDbSavedByObjectVersion
1070
     0
  0
VISUALSTYLE
  5
42
102
{ACAD_REACTORS
330
2A
102
}
102
{ACAD_XDICTIONARY
360
20E
102
}
330
2A
100
AcDbVisualStyle
  2
Shaded
 70
    27
 71
     2
 72
     2
 73
     1
 90
        2
 40
0.6
 41
30.0
 62
     5
 63
     7
 74
     0
 91
        4
 64
     7
 65
   257
 75
     1
175
     1
 42
1.0
 92
        8
 66
   257
 43
1.0
 76
     1
 77
     6
 78
     2
 67
     8
 79
     3
170
     0
171
     0
290
     0
174
     0
 93
        5
 44
0.0
173
     0
291
     0
 45
0.0
1001
ACAD
1000
AcDbSavedByObjectVersion
1070
     0
  0
VISUALSTYLE
  5
41
102
{ACAD_REACTORS
330
2A
102
}
102
{ACAD_XDICTIONARY
360
20C
102
}
330
2A
100
AcDbVisualStyle
  2
Shaded with edges
 70
    26
 71
     2
 72
     2
 73
     1
 90
        2
 40
0.6
 41
30.0
 62
     5
 63
     7
 74
     1
 91
       10
 64
     7
 65
   257
 75
     2
175
     1
 42
1.0
 92
        8
 66
   257
 43
1.0
 76
     1
 77
     6
 78
     2
 67
     7
 79
     3
170
     0
171
     0
290
     0
174
     0
 93
        5
 44
0.0
173
     0
291
     0
 45
0.0
1001
ACAD
1000
AcDbSavedByObjectVersion
1070
     0
  0
VISUALSTYLE
  5
3E
102
{ACAD_REACTORS
330
2A
102
}
102
{ACAD_XDICTIONARY
360
206
102
}
330
2A
100
AcDbVisualStyle
  2
Shades of Gray
 70
    23
 71
     2
 72
     2
 73
     3
 90
        0
 40
0.6
 41
30.0
 62
     5
 63
     7
 74
     2
 91
        2
 64
     7
 65
     7
 75
     1
175
     1
 42
40.0
 92
        8
 66
     7
 43
1.0
 76
     1
 77
     6
 78
     2
 67
     7
 79
     3
170
     0
171
     0
290
     0
174
     0
 93
        1
 44
0.0
173
     0
291
     0
 45
0.0
1001
ACAD
1000
AcDbSavedByObjectVersion
1070
     0
  0
VISUALSTYLE
  5
3F
102
{ACAD_REACTORS
330
2A
102
}
102
{ACAD_XDICTIONARY
360
208
102
}
330
2A
100
AcDbVisualStyle
  2
Sketchy
 70
    24
 71
     1
 72
     2
 73
     2
 90
        0
 40
0.6
 41
30.0
 62
     5
 63
     7
 74
     2
 91
        2
 64
     7
 65
     7
 75
     1
175
     1
 42
40.0
 92
       11
 66
     7
 43
1.0
 76
     1
 77
     6
 78
     2
 67
     7
 79
     6
170
     0
171
     0
290
     0
174
     0
 93
        1
 44
0.0
173
     0
291
     0
 45
0.0
1001
ACAD
1000
AcDbSavedByObjectVersion
1070
     0
  0
VISUALSTYLE
  5
37
102
{ACAD_REACTORS
330
2A
102
}
102
{ACAD_XDICTIONARY
360
1F8
102
}
330
2A
100
AcDbVisualStyle
  2
Thicken
 70
    13
 71
     2
 72
     2
 73
     0
 90
        0
 40
0.6
 41
30.0
 62
     5
 63
     7
 74
     1
 91
        4
 64
     7
 65
   257
 75
     1
175
     1
 42
1.0
 92
       12
 66
     7
 43
1.0
 76
     1
 77
     6
 78
     2
 67
     7
 79
     5
170
     0
171
     0
290
     0
174
     0
 93
        1
 44
0.0
173
     0
291
     1
 45
0.0
1001
ACAD
1000
AcDbSavedByObjectVersion
1070
     0
  0
VISUALSTYLE
  5
30
102
{ACAD_REACTORS
330
2A
102
}
102
{ACAD_XDICTIONARY
360
1EA
102
}
330
2A
100
AcDbVisualStyle
  2
Wireframe
 70
     5
 71
     0
 72
     2
 73
     0
 90
        0
 40
0.6
 41
30.0
 62
     5
 63
     7
 74
     1
 91
        4
 64
     7
 65
   257
 75
     1
175
     1
 42
1.0
 92
        0
 66
   257
 43
1.0
 76
     1
 77
     6
 78
     2
 67
     7
 79
     3
170
     0
171
     0
290
     0
174
     0
 93
        1
 44
0.0
173
     0
291
     0
 45
0.0
1001
ACAD
1000
AcDbSavedByObjectVersion
1070
     0
  0
VISUALSTYLE
  5
40
102
{ACAD_REACTORS
330
2A
102
}
102
{ACAD_XDICTIONARY
360
20A
102
}
330
2A
100
AcDbVisualStyle
  2
X-Ray
 70
    25
 71
     2
 72
     2
 73
     1
 90
        1
 40
0.5
 41
30.0
 62
     5
 63
     7
 74
     1
 91
        0
 64
     7
 65
   257
 75
     1
175
     1
 42
1.0
 92
        8
 66
     7
 43
1.0
 76
     1
 77
     6
 78
     2
 67
     7
 79
     3
170
     0
171
     0
290
     0
174
     0
 93
       13
 44
0.0
173
     0
291
     0
 45
0.0
1001
ACAD
1000
AcDbSavedByObjectVersion
1070
     0
  0
DICTIONARYVAR
  5
1DE
102
{ACAD_REACTORS
330
1D7
102
}
330
1D7
100
DictionaryVariables
280
     0
  1
1:1
  0
DICTIONARYVAR
  5
1DC
102
{ACAD_REACTORS
330
1D7
102
}
330
1D7
100
DictionaryVariables
280
     0
  1
2
  0
DICTIONARYVAR
  5
1DD
102
{ACAD_REACTORS
330
1D7
102
}
330
1D7
100
DictionaryVariables
280
     0
  1
1
  0
DICTIONARYVAR
  5
1DF
102
{ACAD_REACTORS
330
1D7
102
}
330
1D7
100
DictionaryVariables
280
     0
  1
1
  0
DICTIONARY
  5
212
330
45
100
AcDbDictionary
280
     1
281
     1
  3
ACAD_XREC_ROUNDTRIP
360
213
  0
DICTIONARY
  5
210
330
44
100
AcDbDictionary
280
     1
281
     1
  3
ACAD_XREC_ROUNDTRIP
360
211
  0
DICTIONARY
  5
214
330
46
100
AcDbDictionary
280
     1
281
     1
  3
ACAD_XREC_ROUNDTRIP
360
215
  0
DICTIONARY
  5
1E8
330
2F
100
AcDbDictionary
280
     1
281
     1
  3
ACAD_XREC_ROUNDTRIP
360
1E9
  0
DICTIONARY
  5
1EE
330
32
100
AcDbDictionary
280
     1
281
     1
  3
ACAD_XREC_ROUNDTRIP
360
1EF
  0
DICTIONARY
  5
1F6
330
36
100
AcDbDictionary
280
     1
281
     1
  3
ACAD_XREC_ROUNDTRIP
360
1F7
  0
DICTIONARY
  5
1FE
330
3A
100
AcDbDictionary
280
     1
281
     1
  3
ACAD_XREC_ROUNDTRIP
360
1FF
  0
DICTIONARY
  5
1F2
330
34
100
AcDbDictionary
280
     1
281
     1
  3
ACAD_XREC_ROUNDTRIP
360
1F3
  0
DICTIONARY
  5
1F4
330
35
100
AcDbDictionary
280
     1
281
     1
  3
ACAD_XREC_ROUNDTRIP
360
1F5
  0
DICTIONARY
  5
204
330
3D
100
AcDbDictionary
280
     1
281
     1
  3
ACAD_XREC_ROUNDTRIP
360
205
  0
DICTIONARY
  5
1FC
330
39
100
AcDbDictionary
280
     1
281
     1
  3
ACAD_XREC_ROUNDTRIP
360
1FD
  0
DICTIONARY
  5
1E0
330
2B
100
AcDbDictionary
280
     1
281
     1
  3
ACAD_XREC_ROUNDTRIP
360
1E1
  0
DICTIONARY
  5
1E2
330
2C
100
AcDbDictionary
280
     1
281
     1
  3
ACAD_XREC_ROUNDTRIP
360
1E3
  0
DICTIONARY
  5
1E4
330
2D
100
AcDbDictionary
280
     1
281
     1
  3
ACAD_XREC_ROUNDTRIP
360
1E5
  0
DICTIONARY
  5
1E6
330
2E
100
AcDbDictionary
280
     1
281
     1
  3
ACAD_XREC_ROUNDTRIP
360
1E7
  0
DICTIONARY
  5
1EC
330
31
100
AcDbDictionary
280
     1
281
     1
  3
ACAD_XREC_ROUNDTRIP
360
1ED
  0
DICTIONARY
  5
200
330
3B
100
AcDbDictionary
280
     1
281
     1
  3
ACAD_XREC_ROUNDTRIP
360
201
  0
DICTIONARY
  5
1FA
330
38
100
AcDbDictionary
280
     1
281
     1
  3
ACAD_XREC_ROUNDTRIP
360
1FB
  0
DICTIONARY
  5
202
330
3C
100
AcDbDictionary
280
     1
281
     1
  3
ACAD_XREC_ROUNDTRIP
360
203
  0
DICTIONARY
  5
1F0
330
33
100
AcDbDictionary
280
     1
281
     1
  3
ACAD_XREC_ROUNDTRIP
360
1F1
  0
DICTIONARY
  5
20E
330
42
100
AcDbDictionary
280
     1
281
     1
  3
ACAD_XREC_ROUNDTRIP
360
20F
  0
DICTIONARY
  5
20C
330
41
100
AcDbDictionary
280
     1
281
     1
  3
ACAD_XREC_ROUNDTRIP
360
20D
  0
DICTIONARY
  5
206
330
3E
100
AcDbDictionary
280
     1
281
     1
  3
ACAD_XREC_ROUNDTRIP
360
207
  0
DICTIONARY
  5
208
330
3F
100
AcDbDictionary
280
     1
281
     1
  3
ACAD_XREC_ROUNDTRIP
360
209
  0
DICTIONARY
  5
1F8
330
37
100
AcDbDictionary
280
     1
281
     1
  3
ACAD_XREC_ROUNDTRIP
360
1F9
  0
DICTIONARY
  5
1EA
330
30
100
AcDbDictionary
280
     1
281
     1
  3
ACAD_XREC_ROUNDTRIP
360
1EB
  0
DICTIONARY
  5
20A
330
40
100
AcDbDictionary
280
     1
281
     1
  3
ACAD_XREC_ROUNDTRIP
360
20B
  0
XRECORD
  5
213
102
{ACAD_REACTORS
330
212
102
}
330
212
100
AcDbXrecord
280
     1
102
MATERIAL
148
0.0
149
0.0
149
0.0
 93
        0
 94
      127
282
     0
 72
     1
 77
     1
171
     1
175
     1
179
     1
273
     0
  0
XRECORD
  5
211
102
{ACAD_REACTORS
330
210
102
}
330
210
100
AcDbXrecord
280
     1
102
MATERIAL
148
0.0
149
0.0
149
0.0
 93
        0
 94
      127
282
     0
 72
     1
 77
     1
171
     1
175
     1
179
     1
273
     0
  0
XRECORD
  5
215
102
{ACAD_REACTORS
330
214
102
}
330
214
100
AcDbXrecord
280
     1
102
MATERIAL
148
0.0
149
0.0
149
0.0
 93
        0
 94
      127
282
     0
 72
     1
 77
     1
171
     1
175
     1
179
     1
273
     0
  0
XRECORD
  5
1E9
102
{ACAD_REACTORS
330
1E8
102
}
330
1E8
100
AcDbXrecord
280
     1
102
RTVSPropertyOp0
 70
     1
102
RTVSPropertyOp1
 70
     1
102
RTVSPropertyOp2
 70
     1
102
RTVSPropertyOp3
 70
     1
102
RTVSPropertyOp4
 70
     1
102
RTVSPropertyOp5
 70
     1
102
RTVSPropertyOp6
 70
     1
102
RTVSPropertyOp7
 70
     1
102
RTVSPropertyOp8
 70
     1
102
RTVSPropertyOp9
 70
     1
102
RTVSPropertyOp10
 70
     1
102
RTVSPropertyOp11
 70
     1
102
RTVSPropertyOp12
 70
     1
102
RTVSPropertyOp13
 70
     1
102
RTVSPropertyOp14
 70
     1
102
RTVSPropertyOp15
 70
     1
102
RTVSPropertyOp16
 70
     1
102
RTVSPropertyOp17
 70
     1
102
RTVSPropertyOp18
 70
     1
102
RTVSPropertyOp19
 70
     1
102
RTVSPropertyOp20
 70
     1
102
RTVSPropertyOp21
 70
     1
102
RTVSPropertyOp22
 70
     1
102
RTVSPropertyOp23
 70
     1
102
RTVSPropertyOp24
 70
     1
102
RTVSPropertyOp25
 70
     1
102
RTVSPropertyOp26
 70
     1
102
RTVSPropertyOp27
 70
     1
102
RTVSPropertyOp28
 70
     1
102
RTVSPropertyOp29
 70
     1
102
RTVSPropertyOp30
 70
     1
102
RTVSPropertyOp31
 70
     1
102
RTVSPropertyOp32
 70
     1
102
RTVSPropertyOp33
 70
     1
102
RTVSPropertyOp34
 70
     1
102
RTVSPropertyOp35
 70
     1
102
RTVSPropertyOp36
 70
     1
102
RTVSPropertyOp37
 70
     1
102
RTVSPropertyOp38
 70
     1
102
RTVSPropertyOp39
 70
     1
102
RTVSPropertyOp40
 70
     1
102
RTVSPropertyOp41
 70
     1
102
RTVSPropertyOp42
 70
     1
102
RTVSPropertyOp43
 70
     1
102
RTVSPropertyOp44
 70
     1
102
RTVSPropertyOp45
 70
     1
102
RTVSPropertyOp46
 70
     1
102
RTVSPropertyOp47
 70
     1
102
RTVSPropertyOp48
 70
     1
102
RTVSPropertyOp49
 70
     1
102
RTVSPropertyOp50
 70
     1
102
RTVSPropertyOp51
 70
     0
102
RTVSPropertyOp52
 70
     0
102
RTVSPropertyOp53
 70
     1
102
RTVSPropertyOp54
 70
     1
102
RTVSPropertyOp55
 70
     1
102
RTVSPropertyOp56
 70
     1
102
RTVSPropertyOp57
 70
     1
102
RTVSPost2010Prop28
280
     1
102
RTVSPost2010PropOp28
 70
     1
102
RTVSPost2010Prop29
280
     1
102
RTVSPost2010PropOp29
 70
     1
102
RTVSPost2010Prop30
280
     0
102
RTVSPost2010PropOp30
 70
     1
102
RTVSPost2010Prop31
280
     0
102
RTVSPost2010PropOp31
 70
     1
102
RTVSPost2010Prop32
280
     0
102
RTVSPost2010PropOp32
 70
     1
102
RTVSPost2010Prop33
280
     0
102
RTVSPost2010PropOp33
 70
     1
102
RTVSPost2010Prop34
280
     0
102
RTVSPost2010PropOp34
 70
     1
102
RTVSPost2010Prop35
280
     0
102
RTVSPost2010PropOp35
 70
     1
102
RTVSPost2010Prop36
280
     0
102
RTVSPost2010PropOp36
 70
     1
102
RTVSPost2010Prop37
 90
       50
102
RTVSPost2010PropOp37
 70
     1
102
RTVSPost2010Prop38
140
0.0
102
RTVSPost2010PropOp38
 70
     1
102
RTVSPost2010Prop39
140
1.0
102
RTVSPost2010PropOp39
 70
     1
102
RTVSPost2010Prop40
 90
        0
102
RTVSPost2010PropOp40
 70
     1
102
RTVSPost2010Prop41ColorIndex
 90
       18
102
RTVSPost2010Prop41ColorRGB
 90
        0
102
RTVSPost2010PropOp41
 70
     1
102
RTVSPost2010Prop42
 90
       50
102
RTVSPost2010PropOp42
 70
     1
102
RTVSPost2010Prop43
 90
        3
102
RTVSPost2010PropOp43
 70
     1
102
RTVSPost2010Prop44ColorIndex
 90
        5
102
RTVSPost2010Prop44ColorRGB
 90
      255
102
RTVSPost2010PropOp44
 70
     1
102
RTVSPost2010Prop45
280
     0
102
RTVSPost2010PropOp45
 70
     1
102
RTVSPost2010Prop46
 90
       50
102
RTVSPost2010PropOp46
 70
     1
102
RTVSPost2010Prop47
 90
       50
102
RTVSPost2010PropOp47
 70
     1
102
RTVSPost2010Prop48
 90
       50
102
RTVSPost2010PropOp48
 70
     1
102
RTVSPost2010Prop49
280
     0
102
RTVSPost2010PropOp49
 70
     1
102
RTVSPost2010Prop50
 90
       50
102
RTVSPost2010PropOp50
 70
     1
102
RTVSPost2010Prop51ColorIndex
 90
      256
102
RTVSPost2010Prop51ColorRGB
 90
-16777216
102
RTVSPost2010PropOp51
 70
     0
102
RTVSPost2010Prop52
140
1.0
102
RTVSPost2010PropOp52
 70
     0
102
RTVSPost2010Prop53
 90
        2
102
RTVSPost2010PropOp53
 70
     1
102
RTVSPost2010Prop54
  1
strokes_ogs.tif
102
RTVSPost2010PropOp54
 70
     1
102
RTVSPost2010Prop55
280
     0
102
RTVSPost2010PropOp55
 70
     1
102
RTVSPost2010Prop56
140
1.0
102
RTVSPost2010PropOp56
 70
     1
102
RTVSPost2010Prop57
140
1.0
102
RTVSPost2010PropOp57
 70
     1
  0
XRECORD
  5
1EF
102
{ACAD_REACTORS
330
1EE
102
}
330
1EE
100
AcDbXrecord
280
     1
102
RTVSPropertyOp0
 70
     1
102
RTVSPropertyOp1
 70
     1
102
RTVSPropertyOp2
 70
     1
102
RTVSPropertyOp3
 70
     1
102
RTVSPropertyOp4
 70
     1
102
RTVSPropertyOp5
 70
     1
102
RTVSPropertyOp6
 70
     1
102
RTVSPropertyOp7
 70
     1
102
RTVSPropertyOp8
 70
     1
102
RTVSPropertyOp9
 70
     1
102
RTVSPropertyOp10
 70
     1
102
RTVSPropertyOp11
 70
     1
102
RTVSPropertyOp12
 70
     1
102
RTVSPropertyOp13
 70
     1
102
RTVSPropertyOp14
 70
     1
102
RTVSPropertyOp15
 70
     1
102
RTVSPropertyOp16
 70
     1
102
RTVSPropertyOp17
 70
     1
102
RTVSPropertyOp18
 70
     1
102
RTVSPropertyOp19
 70
     1
102
RTVSPropertyOp20
 70
     1
102
RTVSPropertyOp21
 70
     1
102
RTVSPropertyOp22
 70
     1
102
RTVSPropertyOp23
 70
     1
102
RTVSPropertyOp24
 70
     1
102
RTVSPropertyOp25
 70
     1
102
RTVSPropertyOp26
 70
     1
102
RTVSPropertyOp27
 70
     1
102
RTVSPropertyOp28
 70
     1
102
RTVSPropertyOp29
 70
     1
102
RTVSPropertyOp30
 70
     1
102
RTVSPropertyOp31
 70
     1
102
RTVSPropertyOp32
 70
     1
102
RTVSPropertyOp33
 70
     1
102
RTVSPropertyOp34
 70
     1
102
RTVSPropertyOp35
 70
     1
102
RTVSPropertyOp36
 70
     1
102
RTVSPropertyOp37
 70
     1
102
RTVSPropertyOp38
 70
     1
102
RTVSPropertyOp39
 70
     1
102
RTVSPropertyOp40
 70
     1
102
RTVSPropertyOp41
 70
     1
102
RTVSPropertyOp42
 70
     1
102
RTVSPropertyOp43
 70
     1
102
RTVSPropertyOp44
 70
     1
102
RTVSPropertyOp45
 70
     1
102
RTVSPropertyOp46
 70
     1
102
RTVSPropertyOp47
 70
     1
102
RTVSPropertyOp48
 70
     1
102
RTVSPropertyOp49
 70
     1
102
RTVSPropertyOp50
 70
     1
102
RTVSPropertyOp51
 70
     0
102
RTVSPropertyOp52
 70
     0
102
RTVSPropertyOp53
 70
     1
102
RTVSPropertyOp54
 70
     1
102
RTVSPropertyOp55
 70
     1
102
RTVSPropertyOp56
 70
     1
102
RTVSPropertyOp57
 70
     1
102
RTVSPost2010Prop28
280
     0
102
RTVSPost2010PropOp28
 70
     1
102
RTVSPost2010Prop29
280
     1
102
RTVSPost2010PropOp29
 70
     1
102
RTVSPost2010Prop30
280
     1
102
RTVSPost2010PropOp30
 70
     1
102
RTVSPost2010Prop31
280
     0
102
RTVSPost2010PropOp31
 70
     1
102
RTVSPost2010Prop32
280
     0
102
RTVSPost2010PropOp32
 70
     1
102
RTVSPost2010Prop33
280
     0
102
RTVSPost2010PropOp33
 70
     1
102
RTVSPost2010Prop34
280
     0
102
RTVSPost2010PropOp34
 70
     1
102
RTVSPost2010Prop35
280
     0
102
RTVSPost2010PropOp35
 70
     1
102
RTVSPost2010Prop36
280
     0
102
RTVSPost2010PropOp36
 70
     1
102
RTVSPost2010Prop37
 90
       50
102
RTVSPost2010PropOp37
 70
     1
102
RTVSPost2010Prop38
140
0.0
102
RTVSPost2010PropOp38
 70
     1
102
RTVSPost2010Prop39
140
1.0
102
RTVSPost2010PropOp39
 70
     1
102
RTVSPost2010Prop40
 90
        0
102
RTVSPost2010PropOp40
 70
     1
102
RTVSPost2010Prop41ColorIndex
 90
       18
102
RTVSPost2010Prop41ColorRGB
 90
        0
102
RTVSPost2010PropOp41
 70
     1
102
RTVSPost2010Prop42
 90
       50
102
RTVSPost2010PropOp42
 70
     1
102
RTVSPost2010Prop43
 90
        3
102
RTVSPost2010PropOp43
 70
     1
102
RTVSPost2010Prop44ColorIndex
 90
        5
102
RTVSPost2010Prop44ColorRGB
 90
      255
102
RTVSPost2010PropOp44
 70
     1
102
RTVSPost2010Prop45
280
     0
102
RTVSPost2010PropOp45
 70
     1
102
RTVSPost2010Prop46
 90
       50
102
RTVSPost2010PropOp46
 70
     1
102
RTVSPost2010Prop47
 90
       50
102
RTVSPost2010PropOp47
 70
     1
102
RTVSPost2010Prop48
 90
       50
102
RTVSPost2010PropOp48
 70
     1
102
RTVSPost2010Prop49
280
     0
102
RTVSPost2010PropOp49
 70
     1
102
RTVSPost2010Prop50
 90
       50
102
RTVSPost2010PropOp50
 70
     1
102
RTVSPost2010Prop51ColorIndex
 90
      256
102
RTVSPost2010Prop51ColorRGB
 90
-16777216
102
RTVSPost2010PropOp51
 70
     0
102
RTVSPost2010Prop52
140
1.0
102
RTVSPost2010PropOp52
 70
     0
102
RTVSPost2010Prop53
 90
        2
102
RTVSPost2010PropOp53
 70
     1
102
RTVSPost2010Prop54
  1
strokes_ogs.tif
102
RTVSPost2010PropOp54
 70
     1
102
RTVSPost2010Prop55
280
     0
102
RTVSPost2010PropOp55
 70
     1
102
RTVSPost2010Prop56
140
1.0
102
RTVSPost2010PropOp56
 70
     1
102
RTVSPost2010Prop57
140
1.0
102
RTVSPost2010PropOp57
 70
     1
  0
XRECORD
  5
1F7
102
{ACAD_REACTORS
330
1F6
102
}
330
1F6
100
AcDbXrecord
280
     1
102
RTVSPropertyOp0
 70
     1
102
RTVSPropertyOp1
 70
     1
102
RTVSPropertyOp2
 70
     1
102
RTVSPropertyOp3
 70
     1
102
RTVSPropertyOp4
 70
     1
102
RTVSPropertyOp5
 70
     1
102
RTVSPropertyOp6
 70
     1
102
RTVSPropertyOp7
 70
     1
102
RTVSPropertyOp8
 70
     1
102
RTVSPropertyOp9
 70
     1
102
RTVSPropertyOp10
 70
     1
102
RTVSPropertyOp11
 70
     1
102
RTVSPropertyOp12
 70
     1
102
RTVSPropertyOp13
 70
     1
102
RTVSPropertyOp14
 70
     1
102
RTVSPropertyOp15
 70
     1
102
RTVSPropertyOp16
 70
     1
102
RTVSPropertyOp17
 70
     1
102
RTVSPropertyOp18
 70
     1
102
RTVSPropertyOp19
 70
     1
102
RTVSPropertyOp20
 70
     1
102
RTVSPropertyOp21
 70
     1
102
RTVSPropertyOp22
 70
     1
102
RTVSPropertyOp23
 70
     1
102
RTVSPropertyOp24
 70
     1
102
RTVSPropertyOp25
 70
     1
102
RTVSPropertyOp26
 70
     1
102
RTVSPropertyOp27
 70
     1
102
RTVSPropertyOp28
 70
     1
102
RTVSPropertyOp29
 70
     1
102
RTVSPropertyOp30
 70
     1
102
RTVSPropertyOp31
 70
     1
102
RTVSPropertyOp32
 70
     1
102
RTVSPropertyOp33
 70
     1
102
RTVSPropertyOp34
 70
     1
102
RTVSPropertyOp35
 70
     1
102
RTVSPropertyOp36
 70
     1
102
RTVSPropertyOp37
 70
     1
102
RTVSPropertyOp38
 70
     1
102
RTVSPropertyOp39
 70
     1
102
RTVSPropertyOp40
 70
     1
102
RTVSPropertyOp41
 70
     1
102
RTVSPropertyOp42
 70
     1
102
RTVSPropertyOp43
 70
     1
102
RTVSPropertyOp44
 70
     1
102
RTVSPropertyOp45
 70
     1
102
RTVSPropertyOp46
 70
     1
102
RTVSPropertyOp47
 70
     1
102
RTVSPropertyOp48
 70
     1
102
RTVSPropertyOp49
 70
     1
102
RTVSPropertyOp50
 70
     1
102
RTVSPropertyOp51
 70
     0
102
RTVSPropertyOp52
 70
     0
102
RTVSPropertyOp53
 70
     1
102
RTVSPropertyOp54
 70
     1
102
RTVSPropertyOp55
 70
     1
102
RTVSPropertyOp56
 70
     1
102
RTVSPropertyOp57
 70
     1
102
RTVSPost2010Prop28
280
     0
102
RTVSPost2010PropOp28
 70
     1
102
RTVSPost2010Prop29
280
     1
102
RTVSPost2010PropOp29
 70
     1
102
RTVSPost2010Prop30
280
     1
102
RTVSPost2010PropOp30
 70
     1
102
RTVSPost2010Prop31
280
     0
102
RTVSPost2010PropOp31
 70
     1
102
RTVSPost2010Prop32
280
     0
102
RTVSPost2010PropOp32
 70
     1
102
RTVSPost2010Prop33
280
     0
102
RTVSPost2010PropOp33
 70
     1
102
RTVSPost2010Prop34
280
     0
102
RTVSPost2010PropOp34
 70
     1
102
RTVSPost2010Prop35
280
     0
102
RTVSPost2010PropOp35
 70
     1
102
RTVSPost2010Prop36
280
     0
102
RTVSPost2010PropOp36
 70
     1
102
RTVSPost2010Prop37
 90
       50
102
RTVSPost2010PropOp37
 70
     1
102
RTVSPost2010Prop38
140
0.0
102
RTVSPost2010PropOp38
 70
     1
102
RTVSPost2010Prop39
140
1.0
102
RTVSPost2010PropOp39
 70
     1
102
RTVSPost2010Prop40
 90
        0
102
RTVSPost2010PropOp40
 70
     1
102
RTVSPost2010Prop41ColorIndex
 90
       18
102
RTVSPost2010Prop41ColorRGB
 90
        0
102
RTVSPost2010PropOp41
 70
     1
102
RTVSPost2010Prop42
 90
       50
102
RTVSPost2010PropOp42
 70
     1
102
RTVSPost2010Prop43
 90
        3
102
RTVSPost2010PropOp43
 70
     1
102
RTVSPost2010Prop44ColorIndex
 90
        5
102
RTVSPost2010Prop44ColorRGB
 90
      255
102
RTVSPost2010PropOp44
 70
     1
102
RTVSPost2010Prop45
280
     0
102
RTVSPost2010PropOp45
 70
     1
102
RTVSPost2010Prop46
 90
       50
102
RTVSPost2010PropOp46
 70
     1
102
RTVSPost2010Prop47
 90
       50
102
RTVSPost2010PropOp47
 70
     1
102
RTVSPost2010Prop48
 90
       50
102
RTVSPost2010PropOp48
 70
     1
102
RTVSPost2010Prop49
280
     0
102
RTVSPost2010PropOp49
 70
     1
102
RTVSPost2010Prop50
 90
       50
102
RTVSPost2010PropOp50
 70
     1
102
RTVSPost2010Prop51ColorIndex
 90
      256
102
RTVSPost2010Prop51ColorRGB
 90
-16777216
102
RTVSPost2010PropOp51
 70
     0
102
RTVSPost2010Prop52
140
1.0
102
RTVSPost2010PropOp52
 70
     0
102
RTVSPost2010Prop53
 90
        2
102
RTVSPost2010PropOp53
 70
     1
102
RTVSPost2010Prop54
  1
strokes_ogs.tif
102
RTVSPost2010PropOp54
 70
     1
102
RTVSPost2010Prop55
280
     0
102
RTVSPost2010PropOp55
 70
     1
102
RTVSPost2010Prop56
140
1.0
102
RTVSPost2010PropOp56
 70
     1
102
RTVSPost2010Prop57
140
1.0
102
RTVSPost2010PropOp57
 70
     1
  0
XRECORD
  5
1FF
102
{ACAD_REACTORS
330
1FE
102
}
330
1FE
100
AcDbXrecord
280
     1
102
RTVSPropertyOp0
 70
     1
102
RTVSPropertyOp1
 70
     1
102
RTVSPropertyOp2
 70
     1
102
RTVSPropertyOp3
 70
     1
102
RTVSPropertyOp4
 70
     1
102
RTVSPropertyOp5
 70
     1
102
RTVSPropertyOp6
 70
     1
102
RTVSPropertyOp7
 70
     1
102
RTVSPropertyOp8
 70
     1
102
RTVSPropertyOp9
 70
     1
102
RTVSPropertyOp10
 70
     1
102
RTVSPropertyOp11
 70
     1
102
RTVSPropertyOp12
 70
     1
102
RTVSPropertyOp13
 70
     1
102
RTVSPropertyOp14
 70
     1
102
RTVSPropertyOp15
 70
     1
102
RTVSPropertyOp16
 70
     1
102
RTVSPropertyOp17
 70
     1
102
RTVSPropertyOp18
 70
     1
102
RTVSPropertyOp19
 70
     1
102
RTVSPropertyOp20
 70
     1
102
RTVSPropertyOp21
 70
     1
102
RTVSPropertyOp22
 70
     1
102
RTVSPropertyOp23
 70
     1
102
RTVSPropertyOp24
 70
     1
102
RTVSPropertyOp25
 70
     1
102
RTVSPropertyOp26
 70
     1
102
RTVSPropertyOp27
 70
     1
102
RTVSPropertyOp28
 70
     1
102
RTVSPropertyOp29
 70
     1
102
RTVSPropertyOp30
 70
     1
102
RTVSPropertyOp31
 70
     1
102
RTVSPropertyOp32
 70
     1
102
RTVSPropertyOp33
 70
     1
102
RTVSPropertyOp34
 70
     1
102
RTVSPropertyOp35
 70
     1
102
RTVSPropertyOp36
 70
     1
102
RTVSPropertyOp37
 70
     1
102
RTVSPropertyOp38
 70
     1
102
RTVSPropertyOp39
 70
     1
102
RTVSPropertyOp40
 70
     1
102
RTVSPropertyOp41
 70
     1
102
RTVSPropertyOp42
 70
     1
102
RTVSPropertyOp43
 70
     1
102
RTVSPropertyOp44
 70
     1
102
RTVSPropertyOp45
 70
     1
102
RTVSPropertyOp46
 70
     1
102
RTVSPropertyOp47
 70
     1
102
RTVSPropertyOp48
 70
     1
102
RTVSPropertyOp49
 70
     1
102
RTVSPropertyOp50
 70
     1
102
RTVSPropertyOp51
 70
     0
102
RTVSPropertyOp52
 70
     0
102
RTVSPropertyOp53
 70
     1
102
RTVSPropertyOp54
 70
     1
102
RTVSPropertyOp55
 70
     1
102
RTVSPropertyOp56
 70
     1
102
RTVSPropertyOp57
 70
     1
102
RTVSPost2010Prop28
280
     0
102
RTVSPost2010PropOp28
 70
     1
102
RTVSPost2010Prop29
280
     1
102
RTVSPost2010PropOp29
 70
     1
102
RTVSPost2010Prop30
280
     1
102
RTVSPost2010PropOp30
 70
     1
102
RTVSPost2010Prop31
280
     0
102
RTVSPost2010PropOp31
 70
     1
102
RTVSPost2010Prop32
280
     0
102
RTVSPost2010PropOp32
 70
     1
102
RTVSPost2010Prop33
280
     0
102
RTVSPost2010PropOp33
 70
     1
102
RTVSPost2010Prop34
280
     0
102
RTVSPost2010PropOp34
 70
     1
102
RTVSPost2010Prop35
280
     0
102
RTVSPost2010PropOp35
 70
     1
102
RTVSPost2010Prop36
280
     0
102
RTVSPost2010PropOp36
 70
     1
102
RTVSPost2010Prop37
 90
       50
102
RTVSPost2010PropOp37
 70
     1
102
RTVSPost2010Prop38
140
0.0
102
RTVSPost2010PropOp38
 70
     1
102
RTVSPost2010Prop39
140
1.0
102
RTVSPost2010PropOp39
 70
     1
102
RTVSPost2010Prop40
 90
        0
102
RTVSPost2010PropOp40
 70
     1
102
RTVSPost2010Prop41ColorIndex
 90
       18
102
RTVSPost2010Prop41ColorRGB
 90
        0
102
RTVSPost2010PropOp41
 70
     1
102
RTVSPost2010Prop42
 90
       50
102
RTVSPost2010PropOp42
 70
     1
102
RTVSPost2010Prop43
 90
        3
102
RTVSPost2010PropOp43
 70
     1
102
RTVSPost2010Prop44ColorIndex
 90
        5
102
RTVSPost2010Prop44ColorRGB
 90
      255
102
RTVSPost2010PropOp44
 70
     1
102
RTVSPost2010Prop45
280
     0
102
RTVSPost2010PropOp45
 70
     1
102
RTVSPost2010Prop46
 90
       50
102
RTVSPost2010PropOp46
 70
     1
102
RTVSPost2010Prop47
 90
       50
102
RTVSPost2010PropOp47
 70
     1
102
RTVSPost2010Prop48
 90
       50
102
RTVSPost2010PropOp48
 70
     1
102
RTVSPost2010Prop49
280
     0
102
RTVSPost2010PropOp49
 70
     1
102
RTVSPost2010Prop50
 90
       50
102
RTVSPost2010PropOp50
 70
     1
102
RTVSPost2010Prop51ColorIndex
 90
      256
102
RTVSPost2010Prop51ColorRGB
 90
-16777216
102
RTVSPost2010PropOp51
 70
     0
102
RTVSPost2010Prop52
140
1.0
102
RTVSPost2010PropOp52
 70
     0
102
RTVSPost2010Prop53
 90
        2
102
RTVSPost2010PropOp53
 70
     1
102
RTVSPost2010Prop54
  1
strokes_ogs.tif
102
RTVSPost2010PropOp54
 70
     1
102
RTVSPost2010Prop55
280
     0
102
RTVSPost2010PropOp55
 70
     1
102
RTVSPost2010Prop56
140
1.0
102
RTVSPost2010PropOp56
 70
     1
102
RTVSPost2010Prop57
140
1.0
102
RTVSPost2010PropOp57
 70
     1
  0
XRECORD
  5
1F3
102
{ACAD_REACTORS
330
1F2
102
}
330
1F2
100
AcDbXrecord
280
     1
102
RTVSPropertyOp0
 70
     1
102
RTVSPropertyOp1
 70
     1
102
RTVSPropertyOp2
 70
     1
102
RTVSPropertyOp3
 70
     1
102
RTVSPropertyOp4
 70
     1
102
RTVSPropertyOp5
 70
     1
102
RTVSPropertyOp6
 70
     1
102
RTVSPropertyOp7
 70
     1
102
RTVSPropertyOp8
 70
     1
102
RTVSPropertyOp9
 70
     1
102
RTVSPropertyOp10
 70
     1
102
RTVSPropertyOp11
 70
     1
102
RTVSPropertyOp12
 70
     1
102
RTVSPropertyOp13
 70
     1
102
RTVSPropertyOp14
 70
     1
102
RTVSPropertyOp15
 70
     1
102
RTVSPropertyOp16
 70
     1
102
RTVSPropertyOp17
 70
     1
102
RTVSPropertyOp18
 70
     1
102
RTVSPropertyOp19
 70
     1
102
RTVSPropertyOp20
 70
     1
102
RTVSPropertyOp21
 70
     1
102
RTVSPropertyOp22
 70
     1
102
RTVSPropertyOp23
 70
     1
102
RTVSPropertyOp24
 70
     1
102
RTVSPropertyOp25
 70
     1
102
RTVSPropertyOp26
 70
     1
102
RTVSPropertyOp27
 70
     1
102
RTVSPropertyOp28
 70
     1
102
RTVSPropertyOp29
 70
     1
102
RTVSPropertyOp30
 70
     1
102
RTVSPropertyOp31
 70
     1
102
RTVSPropertyOp32
 70
     1
102
RTVSPropertyOp33
 70
     1
102
RTVSPropertyOp34
 70
     1
102
RTVSPropertyOp35
 70
     1
102
RTVSPropertyOp36
 70
     1
102
RTVSPropertyOp37
 70
     1
102
RTVSPropertyOp38
 70
     1
102
RTVSPropertyOp39
 70
     1
102
RTVSPropertyOp40
 70
     1
102
RTVSPropertyOp41
 70
     1
102
RTVSPropertyOp42
 70
     1
102
RTVSPropertyOp43
 70
     1
102
RTVSPropertyOp44
 70
     1
102
RTVSPropertyOp45
 70
     1
102
RTVSPropertyOp46
 70
     1
102
RTVSPropertyOp47
 70
     1
102
RTVSPropertyOp48
 70
     1
102
RTVSPropertyOp49
 70
     1
102
RTVSPropertyOp50
 70
     1
102
RTVSPropertyOp51
 70
     0
102
RTVSPropertyOp52
 70
     0
102
RTVSPropertyOp53
 70
     1
102
RTVSPropertyOp54
 70
     1
102
RTVSPropertyOp55
 70
     1
102
RTVSPropertyOp56
 70
     1
102
RTVSPropertyOp57
 70
     1
102
RTVSPost2010Prop28
280
     0
102
RTVSPost2010PropOp28
 70
     1
102
RTVSPost2010Prop29
280
     1
102
RTVSPost2010PropOp29
 70
     1
102
RTVSPost2010Prop30
280
     1
102
RTVSPost2010PropOp30
 70
     1
102
RTVSPost2010Prop31
280
     0
102
RTVSPost2010PropOp31
 70
     1
102
RTVSPost2010Prop32
280
     0
102
RTVSPost2010PropOp32
 70
     1
102
RTVSPost2010Prop33
280
     0
102
RTVSPost2010PropOp33
 70
     1
102
RTVSPost2010Prop34
280
     0
102
RTVSPost2010PropOp34
 70
     1
102
RTVSPost2010Prop35
280
     0
102
RTVSPost2010PropOp35
 70
     1
102
RTVSPost2010Prop36
280
     0
102
RTVSPost2010PropOp36
 70
     1
102
RTVSPost2010Prop37
 90
       50
102
RTVSPost2010PropOp37
 70
     1
102
RTVSPost2010Prop38
140
0.0
102
RTVSPost2010PropOp38
 70
     1
102
RTVSPost2010Prop39
140
1.0
102
RTVSPost2010PropOp39
 70
     1
102
RTVSPost2010Prop40
 90
        0
102
RTVSPost2010PropOp40
 70
     1
102
RTVSPost2010Prop41ColorIndex
 90
       18
102
RTVSPost2010Prop41ColorRGB
 90
        0
102
RTVSPost2010PropOp41
 70
     1
102
RTVSPost2010Prop42
 90
       50
102
RTVSPost2010PropOp42
 70
     1
102
RTVSPost2010Prop43
 90
        3
102
RTVSPost2010PropOp43
 70
     1
102
RTVSPost2010Prop44ColorIndex
 90
        5
102
RTVSPost2010Prop44ColorRGB
 90
      255
102
RTVSPost2010PropOp44
 70
     1
102
RTVSPost2010Prop45
280
     0
102
RTVSPost2010PropOp45
 70
     1
102
RTVSPost2010Prop46
 90
       50
102
RTVSPost2010PropOp46
 70
     1
102
RTVSPost2010Prop47
 90
       50
102
RTVSPost2010PropOp47
 70
     1
102
RTVSPost2010Prop48
 90
       50
102
RTVSPost2010PropOp48
 70
     1
102
RTVSPost2010Prop49
280
     0
102
RTVSPost2010PropOp49
 70
     1
102
RTVSPost2010Prop50
 90
       50
102
RTVSPost2010PropOp50
 70
     1
102
RTVSPost2010Prop51ColorIndex
 90
      256
102
RTVSPost2010Prop51ColorRGB
 90
-16777216
102
RTVSPost2010PropOp51
 70
     0
102
RTVSPost2010Prop52
140
1.0
102
RTVSPost2010PropOp52
 70
     0
102
RTVSPost2010Prop53
 90
        2
102
RTVSPost2010PropOp53
 70
     1
102
RTVSPost2010Prop54
  1
strokes_ogs.tif
102
RTVSPost2010PropOp54
 70
     1
102
RTVSPost2010Prop55
280
     0
102
RTVSPost2010PropOp55
 70
     1
102
RTVSPost2010Prop56
140
1.0
102
RTVSPost2010PropOp56
 70
     1
102
RTVSPost2010Prop57
140
1.0
102
RTVSPost2010PropOp57
 70
     1
  0
XRECORD
  5
1F5
102
{ACAD_REACTORS
330
1F4
102
}
330
1F4
100
AcDbXrecord
280
     1
102
RTVSPropertyOp0
 70
     1
102
RTVSPropertyOp1
 70
     1
102
RTVSPropertyOp2
 70
     1
102
RTVSPropertyOp3
 70
     1
102
RTVSPropertyOp4
 70
     1
102
RTVSPropertyOp5
 70
     1
102
RTVSPropertyOp6
 70
     1
102
RTVSPropertyOp7
 70
     1
102
RTVSPropertyOp8
 70
     1
102
RTVSPropertyOp9
 70
     1
102
RTVSPropertyOp10
 70
     1
102
RTVSPropertyOp11
 70
     1
102
RTVSPropertyOp12
 70
     1
102
RTVSPropertyOp13
 70
     1
102
RTVSPropertyOp14
 70
     1
102
RTVSPropertyOp15
 70
     1
102
RTVSPropertyOp16
 70
     1
102
RTVSPropertyOp17
 70
     1
102
RTVSPropertyOp18
 70
     1
102
RTVSPropertyOp19
 70
     1
102
RTVSPropertyOp20
 70
     1
102
RTVSPropertyOp21
 70
     1
102
RTVSPropertyOp22
 70
     1
102
RTVSPropertyOp23
 70
     1
102
RTVSPropertyOp24
 70
     1
102
RTVSPropertyOp25
 70
     1
102
RTVSPropertyOp26
 70
     1
102
RTVSPropertyOp27
 70
     1
102
RTVSPropertyOp28
 70
     1
102
RTVSPropertyOp29
 70
     1
102
RTVSPropertyOp30
 70
     1
102
RTVSPropertyOp31
 70
     1
102
RTVSPropertyOp32
 70
     1
102
RTVSPropertyOp33
 70
     1
102
RTVSPropertyOp34
 70
     1
102
RTVSPropertyOp35
 70
     1
102
RTVSPropertyOp36
 70
     1
102
RTVSPropertyOp37
 70
     1
102
RTVSPropertyOp38
 70
     1
102
RTVSPropertyOp39
 70
     1
102
RTVSPropertyOp40
 70
     1
102
RTVSPropertyOp41
 70
     1
102
RTVSPropertyOp42
 70
     1
102
RTVSPropertyOp43
 70
     1
102
RTVSPropertyOp44
 70
     1
102
RTVSPropertyOp45
 70
     1
102
RTVSPropertyOp46
 70
     1
102
RTVSPropertyOp47
 70
     1
102
RTVSPropertyOp48
 70
     1
102
RTVSPropertyOp49
 70
     1
102
RTVSPropertyOp50
 70
     1
102
RTVSPropertyOp51
 70
     0
102
RTVSPropertyOp52
 70
     0
102
RTVSPropertyOp53
 70
     1
102
RTVSPropertyOp54
 70
     1
102
RTVSPropertyOp55
 70
     1
102
RTVSPropertyOp56
 70
     1
102
RTVSPropertyOp57
 70
     1
102
RTVSPost2010Prop28
280
     0
102
RTVSPost2010PropOp28
 70
     1
102
RTVSPost2010Prop29
280
     1
102
RTVSPost2010PropOp29
 70
     1
102
RTVSPost2010Prop30
280
     1
102
RTVSPost2010PropOp30
 70
     1
102
RTVSPost2010Prop31
280
     0
102
RTVSPost2010PropOp31
 70
     1
102
RTVSPost2010Prop32
280
     0
102
RTVSPost2010PropOp32
 70
     1
102
RTVSPost2010Prop33
280
     0
102
RTVSPost2010PropOp33
 70
     1
102
RTVSPost2010Prop34
280
     0
102
RTVSPost2010PropOp34
 70
     1
102
RTVSPost2010Prop35
280
     0
102
RTVSPost2010PropOp35
 70
     1
102
RTVSPost2010Prop36
280
     0
102
RTVSPost2010PropOp36
 70
     1
102
RTVSPost2010Prop37
 90
       50
102
RTVSPost2010PropOp37
 70
     1
102
RTVSPost2010Prop38
140
0.0
102
RTVSPost2010PropOp38
 70
     1
102
RTVSPost2010Prop39
140
1.0
102
RTVSPost2010PropOp39
 70
     1
102
RTVSPost2010Prop40
 90
        0
102
RTVSPost2010PropOp40
 70
     1
102
RTVSPost2010Prop41ColorIndex
 90
       18
102
RTVSPost2010Prop41ColorRGB
 90
        0
102
RTVSPost2010PropOp41
 70
     1
102
RTVSPost2010Prop42
 90
       50
102
RTVSPost2010PropOp42
 70
     1
102
RTVSPost2010Prop43
 90
        3
102
RTVSPost2010PropOp43
 70
     1
102
RTVSPost2010Prop44ColorIndex
 90
        5
102
RTVSPost2010Prop44ColorRGB
 90
      255
102
RTVSPost2010PropOp44
 70
     1
102
RTVSPost2010Prop45
280
     0
102
RTVSPost2010PropOp45
 70
     1
102
RTVSPost2010Prop46
 90
       50
102
RTVSPost2010PropOp46
 70
     1
102
RTVSPost2010Prop47
 90
       50
102
RTVSPost2010PropOp47
 70
     1
102
RTVSPost2010Prop48
 90
       50
102
RTVSPost2010PropOp48
 70
     1
102
RTVSPost2010Prop49
280
     0
102
RTVSPost2010PropOp49
 70
     1
102
RTVSPost2010Prop50
 90
       50
102
RTVSPost2010PropOp50
 70
     1
102
RTVSPost2010Prop51ColorIndex
 90
      256
102
RTVSPost2010Prop51ColorRGB
 90
-16777216
102
RTVSPost2010PropOp51
 70
     0
102
RTVSPost2010Prop52
140
1.0
102
RTVSPost2010PropOp52
 70
     0
102
RTVSPost2010Prop53
 90
        2
102
RTVSPost2010PropOp53
 70
     1
102
RTVSPost2010Prop54
  1
strokes_ogs.tif
102
RTVSPost2010PropOp54
 70
     1
102
RTVSPost2010Prop55
280
     0
102
RTVSPost2010PropOp55
 70
     1
102
RTVSPost2010Prop56
140
1.0
102
RTVSPost2010PropOp56
 70
     1
102
RTVSPost2010Prop57
140
1.0
102
RTVSPost2010PropOp57
 70
     1
  0
XRECORD
  5
205
102
{ACAD_REACTORS
330
204
102
}
330
204
100
AcDbXrecord
280
     1
102
RTVSPropertyOp0
 70
     0
102
RTVSPropertyOp1
 70
     0
102
RTVSPropertyOp2
 70
     0
102
RTVSPropertyOp3
 70
     0
102
RTVSPropertyOp4
 70
     0
102
RTVSPropertyOp5
 70
     0
102
RTVSPropertyOp6
 70
     0
102
RTVSPropertyOp7
 70
     0
102
RTVSPropertyOp8
 70
     0
102
RTVSPropertyOp9
 70
     0
102
RTVSPropertyOp10
 70
     0
102
RTVSPropertyOp11
 70
     0
102
RTVSPropertyOp12
 70
     0
102
RTVSPropertyOp13
 70
     0
102
RTVSPropertyOp14
 70
     2
102
RTVSPropertyOp15
 70
     0
102
RTVSPropertyOp16
 70
     0
102
RTVSPropertyOp17
 70
     0
102
RTVSPropertyOp18
 70
     0
102
RTVSPropertyOp19
 70
     0
102
RTVSPropertyOp20
 70
     0
102
RTVSPropertyOp21
 70
     0
102
RTVSPropertyOp22
 70
     0
102
RTVSPropertyOp23
 70
     0
102
RTVSPropertyOp24
 70
     0
102
RTVSPropertyOp25
 70
     0
102
RTVSPropertyOp26
 70
     0
102
RTVSPropertyOp27
 70
     0
102
RTVSPropertyOp28
 70
     0
102
RTVSPropertyOp29
 70
     0
102
RTVSPropertyOp30
 70
     0
102
RTVSPropertyOp31
 70
     0
102
RTVSPropertyOp32
 70
     0
102
RTVSPropertyOp33
 70
     0
102
RTVSPropertyOp34
 70
     0
102
RTVSPropertyOp35
 70
     0
102
RTVSPropertyOp36
 70
     0
102
RTVSPropertyOp37
 70
     0
102
RTVSPropertyOp38
 70
     0
102
RTVSPropertyOp39
 70
     0
102
RTVSPropertyOp40
 70
     0
102
RTVSPropertyOp41
 70
     0
102
RTVSPropertyOp42
 70
     0
102
RTVSPropertyOp43
 70
     0
102
RTVSPropertyOp44
 70
     0
102
RTVSPropertyOp45
 70
     0
102
RTVSPropertyOp46
 70
     0
102
RTVSPropertyOp47
 70
     0
102
RTVSPropertyOp48
 70
     0
102
RTVSPropertyOp49
 70
     0
102
RTVSPropertyOp50
 70
     0
102
RTVSPropertyOp51
 70
     0
102
RTVSPropertyOp52
 70
     0
102
RTVSPropertyOp53
 70
     0
102
RTVSPropertyOp54
 70
     0
102
RTVSPropertyOp55
 70
     0
102
RTVSPropertyOp56
 70
     0
102
RTVSPropertyOp57
 70
     0
102
RTVSPost2010Prop28
280
     0
102
RTVSPost2010PropOp28
 70
     0
102
RTVSPost2010Prop29
280
     1
102
RTVSPost2010PropOp29
 70
     0
102
RTVSPost2010Prop30
280
     1
102
RTVSPost2010PropOp30
 70
     0
102
RTVSPost2010Prop31
280
     0
102
RTVSPost2010PropOp31
 70
     0
102
RTVSPost2010Prop32
280
     0
102
RTVSPost2010PropOp32
 70
     0
102
RTVSPost2010Prop33
280
     0
102
RTVSPost2010PropOp33
 70
     0
102
RTVSPost2010Prop34
280
     0
102
RTVSPost2010PropOp34
 70
     0
102
RTVSPost2010Prop35
280
     0
102
RTVSPost2010PropOp35
 70
     0
102
RTVSPost2010Prop36
280
     0
102
RTVSPost2010PropOp36
 70
     0
102
RTVSPost2010Prop37
 90
       50
102
RTVSPost2010PropOp37
 70
     0
102
RTVSPost2010Prop38
140
0.0
102
RTVSPost2010PropOp38
 70
     0
102
RTVSPost2010Prop39
140
1.0
102
RTVSPost2010PropOp39
 70
     0
102
RTVSPost2010Prop40
 90
        0
102
RTVSPost2010PropOp40
 70
     0
102
RTVSPost2010Prop41ColorIndex
 90
       18
102
RTVSPost2010Prop41ColorRGB
 90
        0
102
RTVSPost2010PropOp41
 70
     0
102
RTVSPost2010Prop42
 90
       50
102
RTVSPost2010PropOp42
 70
     0
102
RTVSPost2010Prop43
 90
        3
102
RTVSPost2010PropOp43
 70
     0
102
RTVSPost2010Prop44ColorIndex
 90
        5
102
RTVSPost2010Prop44ColorRGB
 90
      255
102
RTVSPost2010PropOp44
 70
     0
102
RTVSPost2010Prop45
280
     0
102
RTVSPost2010PropOp45
 70
     0
102
RTVSPost2010Prop46
 90
       50
102
RTVSPost2010PropOp46
 70
     0
102
RTVSPost2010Prop47
 90
       50
102
RTVSPost2010PropOp47
 70
     0
102
RTVSPost2010Prop48
 90
       50
102
RTVSPost2010PropOp48
 70
     0
102
RTVSPost2010Prop49
280
     0
102
RTVSPost2010PropOp49
 70
     0
102
RTVSPost2010Prop50
 90
       50
102
RTVSPost2010PropOp50
 70
     0
102
RTVSPost2010Prop51ColorIndex
 90
      256
102
RTVSPost2010Prop51ColorRGB
 90
-16777216
102
RTVSPost2010PropOp51
 70
     0
102
RTVSPost2010Prop52
140
1.0
102
RTVSPost2010PropOp52
 70
     0
102
RTVSPost2010Prop53
 90
        2
102
RTVSPost2010PropOp53
 70
     0
102
RTVSPost2010Prop54
  1
strokes_ogs.tif
102
RTVSPost2010PropOp54
 70
     0
102
RTVSPost2010Prop55
280
     0
102
RTVSPost2010PropOp55
 70
     0
102
RTVSPost2010Prop56
140
1.0
102
RTVSPost2010PropOp56
 70
     0
102
RTVSPost2010Prop57
140
1.0
102
RTVSPost2010PropOp57
 70
     0
  0
XRECORD
  5
1FD
102
{ACAD_REACTORS
330
1FC
102
}
330
1FC
100
AcDbXrecord
280
     1
102
RTVSPropertyOp0
 70
     1
102
RTVSPropertyOp1
 70
     1
102
RTVSPropertyOp2
 70
     1
102
RTVSPropertyOp3
 70
     1
102
RTVSPropertyOp4
 70
     1
102
RTVSPropertyOp5
 70
     1
102
RTVSPropertyOp6
 70
     1
102
RTVSPropertyOp7
 70
     1
102
RTVSPropertyOp8
 70
     1
102
RTVSPropertyOp9
 70
     1
102
RTVSPropertyOp10
 70
     1
102
RTVSPropertyOp11
 70
     1
102
RTVSPropertyOp12
 70
     1
102
RTVSPropertyOp13
 70
     1
102
RTVSPropertyOp14
 70
     1
102
RTVSPropertyOp15
 70
     1
102
RTVSPropertyOp16
 70
     1
102
RTVSPropertyOp17
 70
     1
102
RTVSPropertyOp18
 70
     1
102
RTVSPropertyOp19
 70
     1
102
RTVSPropertyOp20
 70
     1
102
RTVSPropertyOp21
 70
     1
102
RTVSPropertyOp22
 70
     1
102
RTVSPropertyOp23
 70
     1
102
RTVSPropertyOp24
 70
     1
102
RTVSPropertyOp25
 70
     1
102
RTVSPropertyOp26
 70
     1
102
RTVSPropertyOp27
 70
     1
102
RTVSPropertyOp28
 70
     1
102
RTVSPropertyOp29
 70
     1
102
RTVSPropertyOp30
 70
     1
102
RTVSPropertyOp31
 70
     1
102
RTVSPropertyOp32
 70
     1
102
RTVSPropertyOp33
 70
     1
102
RTVSPropertyOp34
 70
     1
102
RTVSPropertyOp35
 70
     1
102
RTVSPropertyOp36
 70
     1
102
RTVSPropertyOp37
 70
     1
102
RTVSPropertyOp38
 70
     1
102
RTVSPropertyOp39
 70
     1
102
RTVSPropertyOp40
 70
     1
102
RTVSPropertyOp41
 70
     1
102
RTVSPropertyOp42
 70
     1
102
RTVSPropertyOp43
 70
     1
102
RTVSPropertyOp44
 70
     1
102
RTVSPropertyOp45
 70
     1
102
RTVSPropertyOp46
 70
     1
102
RTVSPropertyOp47
 70
     1
102
RTVSPropertyOp48
 70
     1
102
RTVSPropertyOp49
 70
     1
102
RTVSPropertyOp50
 70
     1
102
RTVSPropertyOp51
 70
     0
102
RTVSPropertyOp52
 70
     0
102
RTVSPropertyOp53
 70
     1
102
RTVSPropertyOp54
 70
     1
102
RTVSPropertyOp55
 70
     1
102
RTVSPropertyOp56
 70
     1
102
RTVSPropertyOp57
 70
     1
102
RTVSPost2010Prop28
280
     0
102
RTVSPost2010PropOp28
 70
     1
102
RTVSPost2010Prop29
280
     1
102
RTVSPost2010PropOp29
 70
     1
102
RTVSPost2010Prop30
280
     1
102
RTVSPost2010PropOp30
 70
     1
102
RTVSPost2010Prop31
280
     0
102
RTVSPost2010PropOp31
 70
     1
102
RTVSPost2010Prop32
280
     0
102
RTVSPost2010PropOp32
 70
     1
102
RTVSPost2010Prop33
280
     0
102
RTVSPost2010PropOp33
 70
     1
102
RTVSPost2010Prop34
280
     0
102
RTVSPost2010PropOp34
 70
     1
102
RTVSPost2010Prop35
280
     0
102
RTVSPost2010PropOp35
 70
     1
102
RTVSPost2010Prop36
280
     0
102
RTVSPost2010PropOp36
 70
     1
102
RTVSPost2010Prop37
 90
       50
102
RTVSPost2010PropOp37
 70
     1
102
RTVSPost2010Prop38
140
0.0
102
RTVSPost2010PropOp38
 70
     1
102
RTVSPost2010Prop39
140
1.0
102
RTVSPost2010PropOp39
 70
     1
102
RTVSPost2010Prop40
 90
        0
102
RTVSPost2010PropOp40
 70
     1
102
RTVSPost2010Prop41ColorIndex
 90
       18
102
RTVSPost2010Prop41ColorRGB
 90
        0
102
RTVSPost2010PropOp41
 70
     1
102
RTVSPost2010Prop42
 90
       50
102
RTVSPost2010PropOp42
 70
     1
102
RTVSPost2010Prop43
 90
        3
102
RTVSPost2010PropOp43
 70
     1
102
RTVSPost2010Prop44ColorIndex
 90
        5
102
RTVSPost2010Prop44ColorRGB
 90
      255
102
RTVSPost2010PropOp44
 70
     1
102
RTVSPost2010Prop45
280
     0
102
RTVSPost2010PropOp45
 70
     1
102
RTVSPost2010Prop46
 90
       50
102
RTVSPost2010PropOp46
 70
     1
102
RTVSPost2010Prop47
 90
       50
102
RTVSPost2010PropOp47
 70
     1
102
RTVSPost2010Prop48
 90
       50
102
RTVSPost2010PropOp48
 70
     1
102
RTVSPost2010Prop49
280
     0
102
RTVSPost2010PropOp49
 70
     1
102
RTVSPost2010Prop50
 90
       50
102
RTVSPost2010PropOp50
 70
     1
102
RTVSPost2010Prop51ColorIndex
 90
      256
102
RTVSPost2010Prop51ColorRGB
 90
-16777216
102
RTVSPost2010PropOp51
 70
     0
102
RTVSPost2010Prop52
140
1.0
102
RTVSPost2010PropOp52
 70
     0
102
RTVSPost2010Prop53
 90
        2
102
RTVSPost2010PropOp53
 70
     1
102
RTVSPost2010Prop54
  1
strokes_ogs.tif
102
RTVSPost2010PropOp54
 70
     1
102
RTVSPost2010Prop55
280
     0
102
RTVSPost2010PropOp55
 70
     1
102
RTVSPost2010Prop56
140
1.0
102
RTVSPost2010PropOp56
 70
     1
102
RTVSPost2010Prop57
140
1.0
102
RTVSPost2010PropOp57
 70
     1
  0
XRECORD
  5
1E1
102
{ACAD_REACTORS
330
1E0
102
}
330
1E0
100
AcDbXrecord
280
     1
102
RTVSPropertyOp0
 70
     1
102
RTVSPropertyOp1
 70
     1
102
RTVSPropertyOp2
 70
     1
102
RTVSPropertyOp3
 70
     1
102
RTVSPropertyOp4
 70
     1
102
RTVSPropertyOp5
 70
     1
102
RTVSPropertyOp6
 70
     1
102
RTVSPropertyOp7
 70
     1
102
RTVSPropertyOp8
 70
     1
102
RTVSPropertyOp9
 70
     1
102
RTVSPropertyOp10
 70
     1
102
RTVSPropertyOp11
 70
     1
102
RTVSPropertyOp12
 70
     1
102
RTVSPropertyOp13
 70
     1
102
RTVSPropertyOp14
 70
     1
102
RTVSPropertyOp15
 70
     1
102
RTVSPropertyOp16
 70
     1
102
RTVSPropertyOp17
 70
     1
102
RTVSPropertyOp18
 70
     1
102
RTVSPropertyOp19
 70
     1
102
RTVSPropertyOp20
 70
     1
102
RTVSPropertyOp21
 70
     1
102
RTVSPropertyOp22
 70
     1
102
RTVSPropertyOp23
 70
     1
102
RTVSPropertyOp24
 70
     1
102
RTVSPropertyOp25
 70
     1
102
RTVSPropertyOp26
 70
     1
102
RTVSPropertyOp27
 70
     1
102
RTVSPropertyOp28
 70
     1
102
RTVSPropertyOp29
 70
     1
102
RTVSPropertyOp30
 70
     1
102
RTVSPropertyOp31
 70
     1
102
RTVSPropertyOp32
 70
     1
102
RTVSPropertyOp33
 70
     1
102
RTVSPropertyOp34
 70
     1
102
RTVSPropertyOp35
 70
     1
102
RTVSPropertyOp36
 70
     1
102
RTVSPropertyOp37
 70
     1
102
RTVSPropertyOp38
 70
     1
102
RTVSPropertyOp39
 70
     1
102
RTVSPropertyOp40
 70
     1
102
RTVSPropertyOp41
 70
     1
102
RTVSPropertyOp42
 70
     1
102
RTVSPropertyOp43
 70
     1
102
RTVSPropertyOp44
 70
     1
102
RTVSPropertyOp45
 70
     1
102
RTVSPropertyOp46
 70
     1
102
RTVSPropertyOp47
 70
     1
102
RTVSPropertyOp48
 70
     1
102
RTVSPropertyOp49
 70
     1
102
RTVSPropertyOp50
 70
     1
102
RTVSPropertyOp51
 70
     0
102
RTVSPropertyOp52
 70
     0
102
RTVSPropertyOp53
 70
     1
102
RTVSPropertyOp54
 70
     1
102
RTVSPropertyOp55
 70
     1
102
RTVSPropertyOp56
 70
     1
102
RTVSPropertyOp57
 70
     1
102
RTVSPost2010Prop28
280
     0
102
RTVSPost2010PropOp28
 70
     1
102
RTVSPost2010Prop29
280
     1
102
RTVSPost2010PropOp29
 70
     1
102
RTVSPost2010Prop30
280
     1
102
RTVSPost2010PropOp30
 70
     1
102
RTVSPost2010Prop31
280
     0
102
RTVSPost2010PropOp31
 70
     1
102
RTVSPost2010Prop32
280
     0
102
RTVSPost2010PropOp32
 70
     1
102
RTVSPost2010Prop33
280
     0
102
RTVSPost2010PropOp33
 70
     1
102
RTVSPost2010Prop34
280
     0
102
RTVSPost2010PropOp34
 70
     1
102
RTVSPost2010Prop35
280
     0
102
RTVSPost2010PropOp35
 70
     1
102
RTVSPost2010Prop36
280
     0
102
RTVSPost2010PropOp36
 70
     1
102
RTVSPost2010Prop37
 90
       50
102
RTVSPost2010PropOp37
 70
     1
102
RTVSPost2010Prop38
140
0.0
102
RTVSPost2010PropOp38
 70
     1
102
RTVSPost2010Prop39
140
1.0
102
RTVSPost2010PropOp39
 70
     1
102
RTVSPost2010Prop40
 90
        0
102
RTVSPost2010PropOp40
 70
     1
102
RTVSPost2010Prop41ColorIndex
 90
       18
102
RTVSPost2010Prop41ColorRGB
 90
        0
102
RTVSPost2010PropOp41
 70
     1
102
RTVSPost2010Prop42
 90
       50
102
RTVSPost2010PropOp42
 70
     1
102
RTVSPost2010Prop43
 90
        3
102
RTVSPost2010PropOp43
 70
     1
102
RTVSPost2010Prop44ColorIndex
 90
        5
102
RTVSPost2010Prop44ColorRGB
 90
      255
102
RTVSPost2010PropOp44
 70
     1
102
RTVSPost2010Prop45
280
     0
102
RTVSPost2010PropOp45
 70
     1
102
RTVSPost2010Prop46
 90
       50
102
RTVSPost2010PropOp46
 70
     1
102
RTVSPost2010Prop47
 90
       50
102
RTVSPost2010PropOp47
 70
     1
102
RTVSPost2010Prop48
 90
       50
102
RTVSPost2010PropOp48
 70
     1
102
RTVSPost2010Prop49
280
     0
102
RTVSPost2010PropOp49
 70
     1
102
RTVSPost2010Prop50
 90
       50
102
RTVSPost2010PropOp50
 70
     1
102
RTVSPost2010Prop51ColorIndex
 90
      256
102
RTVSPost2010Prop51ColorRGB
 90
-16777216
102
RTVSPost2010PropOp51
 70
     0
102
RTVSPost2010Prop52
140
1.0
102
RTVSPost2010PropOp52
 70
     0
102
RTVSPost2010Prop53
 90
        2
102
RTVSPost2010PropOp53
 70
     1
102
RTVSPost2010Prop54
  1
strokes_ogs.tif
102
RTVSPost2010PropOp54
 70
     1
102
RTVSPost2010Prop55
280
     0
102
RTVSPost2010PropOp55
 70
     1
102
RTVSPost2010Prop56
140
1.0
102
RTVSPost2010PropOp56
 70
     1
102
RTVSPost2010Prop57
140
1.0
102
RTVSPost2010PropOp57
 70
     1
  0
XRECORD
  5
1E3
102
{ACAD_REACTORS
330
1E2
102
}
330
1E2
100
AcDbXrecord
280
     1
102
RTVSPropertyOp0
 70
     1
102
RTVSPropertyOp1
 70
     1
102
RTVSPropertyOp2
 70
     1
102
RTVSPropertyOp3
 70
     1
102
RTVSPropertyOp4
 70
     1
102
RTVSPropertyOp5
 70
     1
102
RTVSPropertyOp6
 70
     1
102
RTVSPropertyOp7
 70
     1
102
RTVSPropertyOp8
 70
     1
102
RTVSPropertyOp9
 70
     1
102
RTVSPropertyOp10
 70
     1
102
RTVSPropertyOp11
 70
     1
102
RTVSPropertyOp12
 70
     1
102
RTVSPropertyOp13
 70
     1
102
RTVSPropertyOp14
 70
     1
102
RTVSPropertyOp15
 70
     1
102
RTVSPropertyOp16
 70
     1
102
RTVSPropertyOp17
 70
     1
102
RTVSPropertyOp18
 70
     1
102
RTVSPropertyOp19
 70
     1
102
RTVSPropertyOp20
 70
     1
102
RTVSPropertyOp21
 70
     1
102
RTVSPropertyOp22
 70
     1
102
RTVSPropertyOp23
 70
     1
102
RTVSPropertyOp24
 70
     1
102
RTVSPropertyOp25
 70
     1
102
RTVSPropertyOp26
 70
     1
102
RTVSPropertyOp27
 70
     1
102
RTVSPropertyOp28
 70
     1
102
RTVSPropertyOp29
 70
     1
102
RTVSPropertyOp30
 70
     1
102
RTVSPropertyOp31
 70
     1
102
RTVSPropertyOp32
 70
     1
102
RTVSPropertyOp33
 70
     1
102
RTVSPropertyOp34
 70
     1
102
RTVSPropertyOp35
 70
     1
102
RTVSPropertyOp36
 70
     1
102
RTVSPropertyOp37
 70
     1
102
RTVSPropertyOp38
 70
     1
102
RTVSPropertyOp39
 70
     1
102
RTVSPropertyOp40
 70
     1
102
RTVSPropertyOp41
 70
     1
102
RTVSPropertyOp42
 70
     1
102
RTVSPropertyOp43
 70
     1
102
RTVSPropertyOp44
 70
     1
102
RTVSPropertyOp45
 70
     1
102
RTVSPropertyOp46
 70
     1
102
RTVSPropertyOp47
 70
     1
102
RTVSPropertyOp48
 70
     1
102
RTVSPropertyOp49
 70
     1
102
RTVSPropertyOp50
 70
     1
102
RTVSPropertyOp51
 70
     0
102
RTVSPropertyOp52
 70
     0
102
RTVSPropertyOp53
 70
     1
102
RTVSPropertyOp54
 70
     1
102
RTVSPropertyOp55
 70
     1
102
RTVSPropertyOp56
 70
     1
102
RTVSPropertyOp57
 70
     1
102
RTVSPost2010Prop28
280
     0
102
RTVSPost2010PropOp28
 70
     1
102
RTVSPost2010Prop29
280
     1
102
RTVSPost2010PropOp29
 70
     1
102
RTVSPost2010Prop30
280
     1
102
RTVSPost2010PropOp30
 70
     1
102
RTVSPost2010Prop31
280
     0
102
RTVSPost2010PropOp31
 70
     1
102
RTVSPost2010Prop32
280
     0
102
RTVSPost2010PropOp32
 70
     1
102
RTVSPost2010Prop33
280
     0
102
RTVSPost2010PropOp33
 70
     1
102
RTVSPost2010Prop34
280
     0
102
RTVSPost2010PropOp34
 70
     1
102
RTVSPost2010Prop35
280
     0
102
RTVSPost2010PropOp35
 70
     1
102
RTVSPost2010Prop36
280
     0
102
RTVSPost2010PropOp36
 70
     1
102
RTVSPost2010Prop37
 90
       50
102
RTVSPost2010PropOp37
 70
     1
102
RTVSPost2010Prop38
140
0.0
102
RTVSPost2010PropOp38
 70
     1
102
RTVSPost2010Prop39
140
1.0
102
RTVSPost2010PropOp39
 70
     1
102
RTVSPost2010Prop40
 90
        0
102
RTVSPost2010PropOp40
 70
     1
102
RTVSPost2010Prop41ColorIndex
 90
       18
102
RTVSPost2010Prop41ColorRGB
 90
        0
102
RTVSPost2010PropOp41
 70
     1
102
RTVSPost2010Prop42
 90
       50
102
RTVSPost2010PropOp42
 70
     1
102
RTVSPost2010Prop43
 90
        3
102
RTVSPost2010PropOp43
 70
     1
102
RTVSPost2010Prop44ColorIndex
 90
        5
102
RTVSPost2010Prop44ColorRGB
 90
      255
102
RTVSPost2010PropOp44
 70
     1
102
RTVSPost2010Prop45
280
     0
102
RTVSPost2010PropOp45
 70
     1
102
RTVSPost2010Prop46
 90
       50
102
RTVSPost2010PropOp46
 70
     1
102
RTVSPost2010Prop47
 90
       50
102
RTVSPost2010PropOp47
 70
     1
102
RTVSPost2010Prop48
 90
       50
102
RTVSPost2010PropOp48
 70
     1
102
RTVSPost2010Prop49
280
     0
102
RTVSPost2010PropOp49
 70
     1
102
RTVSPost2010Prop50
 90
       50
102
RTVSPost2010PropOp50
 70
     1
102
RTVSPost2010Prop51ColorIndex
 90
      256
102
RTVSPost2010Prop51ColorRGB
 90
-16777216
102
RTVSPost2010PropOp51
 70
     0
102
RTVSPost2010Prop52
140
1.0
102
RTVSPost2010PropOp52
 70
     0
102
RTVSPost2010Prop53
 90
        2
102
RTVSPost2010PropOp53
 70
     1
102
RTVSPost2010Prop54
  1
strokes_ogs.tif
102
RTVSPost2010PropOp54
 70
     1
102
RTVSPost2010Prop55
280
     0
102
RTVSPost2010PropOp55
 70
     1
102
RTVSPost2010Prop56
140
1.0
102
RTVSPost2010PropOp56
 70
     1
102
RTVSPost2010Prop57
140
1.0
102
RTVSPost2010PropOp57
 70
     1
  0
XRECORD
  5
1E5
102
{ACAD_REACTORS
330
1E4
102
}
330
1E4
100
AcDbXrecord
280
     1
102
RTVSPropertyOp0
 70
     1
102
RTVSPropertyOp1
 70
     1
102
RTVSPropertyOp2
 70
     1
102
RTVSPropertyOp3
 70
     1
102
RTVSPropertyOp4
 70
     1
102
RTVSPropertyOp5
 70
     1
102
RTVSPropertyOp6
 70
     1
102
RTVSPropertyOp7
 70
     1
102
RTVSPropertyOp8
 70
     1
102
RTVSPropertyOp9
 70
     1
102
RTVSPropertyOp10
 70
     1
102
RTVSPropertyOp11
 70
     1
102
RTVSPropertyOp12
 70
     1
102
RTVSPropertyOp13
 70
     1
102
RTVSPropertyOp14
 70
     1
102
RTVSPropertyOp15
 70
     1
102
RTVSPropertyOp16
 70
     1
102
RTVSPropertyOp17
 70
     1
102
RTVSPropertyOp18
 70
     1
102
RTVSPropertyOp19
 70
     1
102
RTVSPropertyOp20
 70
     1
102
RTVSPropertyOp21
 70
     1
102
RTVSPropertyOp22
 70
     1
102
RTVSPropertyOp23
 70
     1
102
RTVSPropertyOp24
 70
     1
102
RTVSPropertyOp25
 70
     1
102
RTVSPropertyOp26
 70
     1
102
RTVSPropertyOp27
 70
     1
102
RTVSPropertyOp28
 70
     1
102
RTVSPropertyOp29
 70
     1
102
RTVSPropertyOp30
 70
     1
102
RTVSPropertyOp31
 70
     1
102
RTVSPropertyOp32
 70
     1
102
RTVSPropertyOp33
 70
     1
102
RTVSPropertyOp34
 70
     1
102
RTVSPropertyOp35
 70
     1
102
RTVSPropertyOp36
 70
     1
102
RTVSPropertyOp37
 70
     1
102
RTVSPropertyOp38
 70
     1
102
RTVSPropertyOp39
 70
     1
102
RTVSPropertyOp40
 70
     1
102
RTVSPropertyOp41
 70
     1
102
RTVSPropertyOp42
 70
     1
102
RTVSPropertyOp43
 70
     1
102
RTVSPropertyOp44
 70
     1
102
RTVSPropertyOp45
 70
     1
102
RTVSPropertyOp46
 70
     1
102
RTVSPropertyOp47
 70
     1
102
RTVSPropertyOp48
 70
     1
102
RTVSPropertyOp49
 70
     1
102
RTVSPropertyOp50
 70
     1
102
RTVSPropertyOp51
 70
     0
102
RTVSPropertyOp52
 70
     0
102
RTVSPropertyOp53
 70
     1
102
RTVSPropertyOp54
 70
     1
102
RTVSPropertyOp55
 70
     1
102
RTVSPropertyOp56
 70
     1
102
RTVSPropertyOp57
 70
     1
102
RTVSPost2010Prop28
280
     0
102
RTVSPost2010PropOp28
 70
     1
102
RTVSPost2010Prop29
280
     1
102
RTVSPost2010PropOp29
 70
     1
102
RTVSPost2010Prop30
280
     1
102
RTVSPost2010PropOp30
 70
     1
102
RTVSPost2010Prop31
280
     0
102
RTVSPost2010PropOp31
 70
     1
102
RTVSPost2010Prop32
280
     0
102
RTVSPost2010PropOp32
 70
     1
102
RTVSPost2010Prop33
280
     0
102
RTVSPost2010PropOp33
 70
     1
102
RTVSPost2010Prop34
280
     0
102
RTVSPost2010PropOp34
 70
     1
102
RTVSPost2010Prop35
280
     0
102
RTVSPost2010PropOp35
 70
     1
102
RTVSPost2010Prop36
280
     0
102
RTVSPost2010PropOp36
 70
     1
102
RTVSPost2010Prop37
 90
       50
102
RTVSPost2010PropOp37
 70
     1
102
RTVSPost2010Prop38
140
0.0
102
RTVSPost2010PropOp38
 70
     1
102
RTVSPost2010Prop39
140
1.0
102
RTVSPost2010PropOp39
 70
     1
102
RTVSPost2010Prop40
 90
        0
102
RTVSPost2010PropOp40
 70
     1
102
RTVSPost2010Prop41ColorIndex
 90
       18
102
RTVSPost2010Prop41ColorRGB
 90
        0
102
RTVSPost2010PropOp41
 70
     1
102
RTVSPost2010Prop42
 90
       50
102
RTVSPost2010PropOp42
 70
     1
102
RTVSPost2010Prop43
 90
        3
102
RTVSPost2010PropOp43
 70
     1
102
RTVSPost2010Prop44ColorIndex
 90
        5
102
RTVSPost2010Prop44ColorRGB
 90
      255
102
RTVSPost2010PropOp44
 70
     1
102
RTVSPost2010Prop45
280
     0
102
RTVSPost2010PropOp45
 70
     1
102
RTVSPost2010Prop46
 90
       50
102
RTVSPost2010PropOp46
 70
     1
102
RTVSPost2010Prop47
 90
       50
102
RTVSPost2010PropOp47
 70
     1
102
RTVSPost2010Prop48
 90
       50
102
RTVSPost2010PropOp48
 70
     1
102
RTVSPost2010Prop49
280
     0
102
RTVSPost2010PropOp49
 70
     1
102
RTVSPost2010Prop50
 90
       50
102
RTVSPost2010PropOp50
 70
     1
102
RTVSPost2010Prop51ColorIndex
 90
      256
102
RTVSPost2010Prop51ColorRGB
 90
-16777216
102
RTVSPost2010PropOp51
 70
     0
102
RTVSPost2010Prop52
140
1.0
102
RTVSPost2010PropOp52
 70
     0
102
RTVSPost2010Prop53
 90
        2
102
RTVSPost2010PropOp53
 70
     1
102
RTVSPost2010Prop54
  1
strokes_ogs.tif
102
RTVSPost2010PropOp54
 70
     1
102
RTVSPost2010Prop55
280
     0
102
RTVSPost2010PropOp55
 70
     1
102
RTVSPost2010Prop56
140
1.0
102
RTVSPost2010PropOp56
 70
     1
102
RTVSPost2010Prop57
140
1.0
102
RTVSPost2010PropOp57
 70
     1
  0
XRECORD
  5
1E7
102
{ACAD_REACTORS
330
1E6
102
}
330
1E6
100
AcDbXrecord
280
     1
102
RTVSPropertyOp0
 70
     1
102
RTVSPropertyOp1
 70
     1
102
RTVSPropertyOp2
 70
     1
102
RTVSPropertyOp3
 70
     1
102
RTVSPropertyOp4
 70
     1
102
RTVSPropertyOp5
 70
     1
102
RTVSPropertyOp6
 70
     1
102
RTVSPropertyOp7
 70
     1
102
RTVSPropertyOp8
 70
     1
102
RTVSPropertyOp9
 70
     1
102
RTVSPropertyOp10
 70
     1
102
RTVSPropertyOp11
 70
     1
102
RTVSPropertyOp12
 70
     1
102
RTVSPropertyOp13
 70
     1
102
RTVSPropertyOp14
 70
     1
102
RTVSPropertyOp15
 70
     1
102
RTVSPropertyOp16
 70
     1
102
RTVSPropertyOp17
 70
     1
102
RTVSPropertyOp18
 70
     1
102
RTVSPropertyOp19
 70
     1
102
RTVSPropertyOp20
 70
     1
102
RTVSPropertyOp21
 70
     1
102
RTVSPropertyOp22
 70
     1
102
RTVSPropertyOp23
 70
     1
102
RTVSPropertyOp24
 70
     1
102
RTVSPropertyOp25
 70
     1
102
RTVSPropertyOp26
 70
     1
102
RTVSPropertyOp27
 70
     1
102
RTVSPropertyOp28
 70
     1
102
RTVSPropertyOp29
 70
     1
102
RTVSPropertyOp30
 70
     1
102
RTVSPropertyOp31
 70
     1
102
RTVSPropertyOp32
 70
     1
102
RTVSPropertyOp33
 70
     1
102
RTVSPropertyOp34
 70
     1
102
RTVSPropertyOp35
 70
     1
102
RTVSPropertyOp36
 70
     1
102
RTVSPropertyOp37
 70
     1
102
RTVSPropertyOp38
 70
     1
102
RTVSPropertyOp39
 70
     1
102
RTVSPropertyOp40
 70
     1
102
RTVSPropertyOp41
 70
     1
102
RTVSPropertyOp42
 70
     1
102
RTVSPropertyOp43
 70
     1
102
RTVSPropertyOp44
 70
     1
102
RTVSPropertyOp45
 70
     1
102
RTVSPropertyOp46
 70
     1
102
RTVSPropertyOp47
 70
     1
102
RTVSPropertyOp48
 70
     1
102
RTVSPropertyOp49
 70
     1
102
RTVSPropertyOp50
 70
     1
102
RTVSPropertyOp51
 70
     0
102
RTVSPropertyOp52
 70
     0
102
RTVSPropertyOp53
 70
     1
102
RTVSPropertyOp54
 70
     1
102
RTVSPropertyOp55
 70
     1
102
RTVSPropertyOp56
 70
     1
102
RTVSPropertyOp57
 70
     1
102
RTVSPost2010Prop28
280
     0
102
RTVSPost2010PropOp28
 70
     1
102
RTVSPost2010Prop29
280
     1
102
RTVSPost2010PropOp29
 70
     1
102
RTVSPost2010Prop30
280
     1
102
RTVSPost2010PropOp30
 70
     1
102
RTVSPost2010Prop31
280
     0
102
RTVSPost2010PropOp31
 70
     1
102
RTVSPost2010Prop32
280
     0
102
RTVSPost2010PropOp32
 70
     1
102
RTVSPost2010Prop33
280
     0
102
RTVSPost2010PropOp33
 70
     1
102
RTVSPost2010Prop34
280
     0
102
RTVSPost2010PropOp34
 70
     1
102
RTVSPost2010Prop35
280
     0
102
RTVSPost2010PropOp35
 70
     1
102
RTVSPost2010Prop36
280
     0
102
RTVSPost2010PropOp36
 70
     1
102
RTVSPost2010Prop37
 90
       50
102
RTVSPost2010PropOp37
 70
     1
102
RTVSPost2010Prop38
140
0.0
102
RTVSPost2010PropOp38
 70
     1
102
RTVSPost2010Prop39
140
1.0
102
RTVSPost2010PropOp39
 70
     1
102
RTVSPost2010Prop40
 90
        0
102
RTVSPost2010PropOp40
 70
     1
102
RTVSPost2010Prop41ColorIndex
 90
       18
102
RTVSPost2010Prop41ColorRGB
 90
        0
102
RTVSPost2010PropOp41
 70
     1
102
RTVSPost2010Prop42
 90
       50
102
RTVSPost2010PropOp42
 70
     1
102
RTVSPost2010Prop43
 90
        3
102
RTVSPost2010PropOp43
 70
     1
102
RTVSPost2010Prop44ColorIndex
 90
        5
102
RTVSPost2010Prop44ColorRGB
 90
      255
102
RTVSPost2010PropOp44
 70
     1
102
RTVSPost2010Prop45
280
     0
102
RTVSPost2010PropOp45
 70
     1
102
RTVSPost2010Prop46
 90
       50
102
RTVSPost2010PropOp46
 70
     1
102
RTVSPost2010Prop47
 90
       50
102
RTVSPost2010PropOp47
 70
     1
102
RTVSPost2010Prop48
 90
       50
102
RTVSPost2010PropOp48
 70
     1
102
RTVSPost2010Prop49
280
     0
102
RTVSPost2010PropOp49
 70
     1
102
RTVSPost2010Prop50
 90
       50
102
RTVSPost2010PropOp50
 70
     1
102
RTVSPost2010Prop51ColorIndex
 90
      256
102
RTVSPost2010Prop51ColorRGB
 90
-16777216
102
RTVSPost2010PropOp51
 70
     0
102
RTVSPost2010Prop52
140
1.0
102
RTVSPost2010PropOp52
 70
     0
102
RTVSPost2010Prop53
 90
        2
102
RTVSPost2010PropOp53
 70
     1
102
RTVSPost2010Prop54
  1
strokes_ogs.tif
102
RTVSPost2010PropOp54
 70
     1
102
RTVSPost2010Prop55
280
     0
102
RTVSPost2010PropOp55
 70
     1
102
RTVSPost2010Prop56
140
1.0
102
RTVSPost2010PropOp56
 70
     1
102
RTVSPost2010Prop57
140
1.0
102
RTVSPost2010PropOp57
 70
     1
  0
XRECORD
  5
1ED
102
{ACAD_REACTORS
330
1EC
102
}
330
1EC
100
AcDbXrecord
280
     1
102
RTVSPropertyOp0
 70
     1
102
RTVSPropertyOp1
 70
     1
102
RTVSPropertyOp2
 70
     1
102
RTVSPropertyOp3
 70
     1
102
RTVSPropertyOp4
 70
     1
102
RTVSPropertyOp5
 70
     1
102
RTVSPropertyOp6
 70
     1
102
RTVSPropertyOp7
 70
     1
102
RTVSPropertyOp8
 70
     1
102
RTVSPropertyOp9
 70
     1
102
RTVSPropertyOp10
 70
     1
102
RTVSPropertyOp11
 70
     1
102
RTVSPropertyOp12
 70
     1
102
RTVSPropertyOp13
 70
     1
102
RTVSPropertyOp14
 70
     1
102
RTVSPropertyOp15
 70
     1
102
RTVSPropertyOp16
 70
     1
102
RTVSPropertyOp17
 70
     1
102
RTVSPropertyOp18
 70
     1
102
RTVSPropertyOp19
 70
     1
102
RTVSPropertyOp20
 70
     1
102
RTVSPropertyOp21
 70
     1
102
RTVSPropertyOp22
 70
     1
102
RTVSPropertyOp23
 70
     1
102
RTVSPropertyOp24
 70
     1
102
RTVSPropertyOp25
 70
     1
102
RTVSPropertyOp26
 70
     1
102
RTVSPropertyOp27
 70
     1
102
RTVSPropertyOp28
 70
     1
102
RTVSPropertyOp29
 70
     1
102
RTVSPropertyOp30
 70
     1
102
RTVSPropertyOp31
 70
     1
102
RTVSPropertyOp32
 70
     1
102
RTVSPropertyOp33
 70
     1
102
RTVSPropertyOp34
 70
     1
102
RTVSPropertyOp35
 70
     1
102
RTVSPropertyOp36
 70
     1
102
RTVSPropertyOp37
 70
     1
102
RTVSPropertyOp38
 70
     1
102
RTVSPropertyOp39
 70
     1
102
RTVSPropertyOp40
 70
     1
102
RTVSPropertyOp41
 70
     1
102
RTVSPropertyOp42
 70
     1
102
RTVSPropertyOp43
 70
     1
102
RTVSPropertyOp44
 70
     1
102
RTVSPropertyOp45
 70
     1
102
RTVSPropertyOp46
 70
     1
102
RTVSPropertyOp47
 70
     1
102
RTVSPropertyOp48
 70
     1
102
RTVSPropertyOp49
 70
     1
102
RTVSPropertyOp50
 70
     1
102
RTVSPropertyOp51
 70
     0
102
RTVSPropertyOp52
 70
     0
102
RTVSPropertyOp53
 70
     1
102
RTVSPropertyOp54
 70
     1
102
RTVSPropertyOp55
 70
     1
102
RTVSPropertyOp56
 70
     1
102
RTVSPropertyOp57
 70
     1
102
RTVSPost2010Prop28
280
     0
102
RTVSPost2010PropOp28
 70
     1
102
RTVSPost2010Prop29
280
     1
102
RTVSPost2010PropOp29
 70
     1
102
RTVSPost2010Prop30
280
     1
102
RTVSPost2010PropOp30
 70
     1
102
RTVSPost2010Prop31
280
     0
102
RTVSPost2010PropOp31
 70
     1
102
RTVSPost2010Prop32
280
     0
102
RTVSPost2010PropOp32
 70
     1
102
RTVSPost2010Prop33
280
     0
102
RTVSPost2010PropOp33
 70
     1
102
RTVSPost2010Prop34
280
     0
102
RTVSPost2010PropOp34
 70
     1
102
RTVSPost2010Prop35
280
     0
102
RTVSPost2010PropOp35
 70
     1
102
RTVSPost2010Prop36
280
     0
102
RTVSPost2010PropOp36
 70
     1
102
RTVSPost2010Prop37
 90
       50
102
RTVSPost2010PropOp37
 70
     1
102
RTVSPost2010Prop38
140
0.0
102
RTVSPost2010PropOp38
 70
     1
102
RTVSPost2010Prop39
140
1.0
102
RTVSPost2010PropOp39
 70
     1
102
RTVSPost2010Prop40
 90
        0
102
RTVSPost2010PropOp40
 70
     1
102
RTVSPost2010Prop41ColorIndex
 90
       18
102
RTVSPost2010Prop41ColorRGB
 90
        0
102
RTVSPost2010PropOp41
 70
     1
102
RTVSPost2010Prop42
 90
       50
102
RTVSPost2010PropOp42
 70
     1
102
RTVSPost2010Prop43
 90
        3
102
RTVSPost2010PropOp43
 70
     1
102
RTVSPost2010Prop44ColorIndex
 90
        5
102
RTVSPost2010Prop44ColorRGB
 90
      255
102
RTVSPost2010PropOp44
 70
     1
102
RTVSPost2010Prop45
280
     0
102
RTVSPost2010PropOp45
 70
     1
102
RTVSPost2010Prop46
 90
       50
102
RTVSPost2010PropOp46
 70
     1
102
RTVSPost2010Prop47
 90
       50
102
RTVSPost2010PropOp47
 70
     1
102
RTVSPost2010Prop48
 90
       50
102
RTVSPost2010PropOp48
 70
     1
102
RTVSPost2010Prop49
280
     0
102
RTVSPost2010PropOp49
 70
     1
102
RTVSPost2010Prop50
 90
       50
102
RTVSPost2010PropOp50
 70
     1
102
RTVSPost2010Prop51ColorIndex
 90
      256
102
RTVSPost2010Prop51ColorRGB
 90
-16777216
102
RTVSPost2010PropOp51
 70
     0
102
RTVSPost2010Prop52
140
1.0
102
RTVSPost2010PropOp52
 70
     0
102
RTVSPost2010Prop53
 90
        2
102
RTVSPost2010PropOp53
 70
     1
102
RTVSPost2010Prop54
  1
strokes_ogs.tif
102
RTVSPost2010PropOp54
 70
     1
102
RTVSPost2010Prop55
280
     0
102
RTVSPost2010PropOp55
 70
     1
102
RTVSPost2010Prop56
140
1.0
102
RTVSPost2010PropOp56
 70
     1
102
RTVSPost2010Prop57
140
1.0
102
RTVSPost2010PropOp57
 70
     1
  0
XRECORD
  5
201
102
{ACAD_REACTORS
330
200
102
}
330
200
100
AcDbXrecord
280
     1
102
RTVSPropertyOp0
 70
     0
102
RTVSPropertyOp1
 70
     0
102
RTVSPropertyOp2
 70
     0
102
RTVSPropertyOp3
 70
     0
102
RTVSPropertyOp4
 70
     0
102
RTVSPropertyOp5
 70
     0
102
RTVSPropertyOp6
 70
     0
102
RTVSPropertyOp7
 70
     0
102
RTVSPropertyOp8
 70
     0
102
RTVSPropertyOp9
 70
     0
102
RTVSPropertyOp10
 70
     0
102
RTVSPropertyOp11
 70
     0
102
RTVSPropertyOp12
 70
     0
102
RTVSPropertyOp13
 70
     0
102
RTVSPropertyOp14
 70
     2
102
RTVSPropertyOp15
 70
     0
102
RTVSPropertyOp16
 70
     0
102
RTVSPropertyOp17
 70
     0
102
RTVSPropertyOp18
 70
     0
102
RTVSPropertyOp19
 70
     0
102
RTVSPropertyOp20
 70
     0
102
RTVSPropertyOp21
 70
     0
102
RTVSPropertyOp22
 70
     0
102
RTVSPropertyOp23
 70
     0
102
RTVSPropertyOp24
 70
     0
102
RTVSPropertyOp25
 70
     0
102
RTVSPropertyOp26
 70
     0
102
RTVSPropertyOp27
 70
     0
102
RTVSPropertyOp28
 70
     0
102
RTVSPropertyOp29
 70
     0
102
RTVSPropertyOp30
 70
     0
102
RTVSPropertyOp31
 70
     0
102
RTVSPropertyOp32
 70
     0
102
RTVSPropertyOp33
 70
     0
102
RTVSPropertyOp34
 70
     0
102
RTVSPropertyOp35
 70
     0
102
RTVSPropertyOp36
 70
     0
102
RTVSPropertyOp37
 70
     0
102
RTVSPropertyOp38
 70
     0
102
RTVSPropertyOp39
 70
     0
102
RTVSPropertyOp40
 70
     0
102
RTVSPropertyOp41
 70
     0
102
RTVSPropertyOp42
 70
     0
102
RTVSPropertyOp43
 70
     0
102
RTVSPropertyOp44
 70
     0
102
RTVSPropertyOp45
 70
     0
102
RTVSPropertyOp46
 70
     0
102
RTVSPropertyOp47
 70
     0
102
RTVSPropertyOp48
 70
     0
102
RTVSPropertyOp49
 70
     0
102
RTVSPropertyOp50
 70
     0
102
RTVSPropertyOp51
 70
     0
102
RTVSPropertyOp52
 70
     0
102
RTVSPropertyOp53
 70
     0
102
RTVSPropertyOp54
 70
     0
102
RTVSPropertyOp55
 70
     0
102
RTVSPropertyOp56
 70
     0
102
RTVSPropertyOp57
 70
     0
102
RTVSPost2010Prop28
280
     0
102
RTVSPost2010PropOp28
 70
     0
102
RTVSPost2010Prop29
280
     1
102
RTVSPost2010PropOp29
 70
     0
102
RTVSPost2010Prop30
280
     1
102
RTVSPost2010PropOp30
 70
     0
102
RTVSPost2010Prop31
280
     0
102
RTVSPost2010PropOp31
 70
     0
102
RTVSPost2010Prop32
280
     0
102
RTVSPost2010PropOp32
 70
     0
102
RTVSPost2010Prop33
280
     0
102
RTVSPost2010PropOp33
 70
     0
102
RTVSPost2010Prop34
280
     0
102
RTVSPost2010PropOp34
 70
     0
102
RTVSPost2010Prop35
280
     0
102
RTVSPost2010PropOp35
 70
     0
102
RTVSPost2010Prop36
280
     0
102
RTVSPost2010PropOp36
 70
     0
102
RTVSPost2010Prop37
 90
       50
102
RTVSPost2010PropOp37
 70
     0
102
RTVSPost2010Prop38
140
0.0
102
RTVSPost2010PropOp38
 70
     0
102
RTVSPost2010Prop39
140
1.0
102
RTVSPost2010PropOp39
 70
     0
102
RTVSPost2010Prop40
 90
        0
102
RTVSPost2010PropOp40
 70
     0
102
RTVSPost2010Prop41ColorIndex
 90
       18
102
RTVSPost2010Prop41ColorRGB
 90
        0
102
RTVSPost2010PropOp41
 70
     0
102
RTVSPost2010Prop42
 90
       50
102
RTVSPost2010PropOp42
 70
     0
102
RTVSPost2010Prop43
 90
        3
102
RTVSPost2010PropOp43
 70
     0
102
RTVSPost2010Prop44ColorIndex
 90
        5
102
RTVSPost2010Prop44ColorRGB
 90
      255
102
RTVSPost2010PropOp44
 70
     0
102
RTVSPost2010Prop45
280
     0
102
RTVSPost2010PropOp45
 70
     0
102
RTVSPost2010Prop46
 90
       50
102
RTVSPost2010PropOp46
 70
     0
102
RTVSPost2010Prop47
 90
       50
102
RTVSPost2010PropOp47
 70
     0
102
RTVSPost2010Prop48
 90
       50
102
RTVSPost2010PropOp48
 70
     0
102
RTVSPost2010Prop49
280
     0
102
RTVSPost2010PropOp49
 70
     0
102
RTVSPost2010Prop50
 90
       50
102
RTVSPost2010PropOp50
 70
     0
102
RTVSPost2010Prop51ColorIndex
 90
      256
102
RTVSPost2010Prop51ColorRGB
 90
-16777216
102
RTVSPost2010PropOp51
 70
     0
102
RTVSPost2010Prop52
140
1.0
102
RTVSPost2010PropOp52
 70
     0
102
RTVSPost2010Prop53
 90
        2
102
RTVSPost2010PropOp53
 70
     0
102
RTVSPost2010Prop54
  1
strokes_ogs.tif
102
RTVSPost2010PropOp54
 70
     0
102
RTVSPost2010Prop55
280
     0
102
RTVSPost2010PropOp55
 70
     0
102
RTVSPost2010Prop56
140
1.0
102
RTVSPost2010PropOp56
 70
     0
102
RTVSPost2010Prop57
140
1.0
102
RTVSPost2010PropOp57
 70
     0
  0
XRECORD
  5
1FB
102
{ACAD_REACTORS
330
1FA
102
}
330
1FA
100
AcDbXrecord
280
     1
102
RTVSPropertyOp0
 70
     1
102
RTVSPropertyOp1
 70
     1
102
RTVSPropertyOp2
 70
     1
102
RTVSPropertyOp3
 70
     1
102
RTVSPropertyOp4
 70
     1
102
RTVSPropertyOp5
 70
     1
102
RTVSPropertyOp6
 70
     1
102
RTVSPropertyOp7
 70
     1
102
RTVSPropertyOp8
 70
     1
102
RTVSPropertyOp9
 70
     1
102
RTVSPropertyOp10
 70
     1
102
RTVSPropertyOp11
 70
     1
102
RTVSPropertyOp12
 70
     1
102
RTVSPropertyOp13
 70
     1
102
RTVSPropertyOp14
 70
     1
102
RTVSPropertyOp15
 70
     1
102
RTVSPropertyOp16
 70
     1
102
RTVSPropertyOp17
 70
     1
102
RTVSPropertyOp18
 70
     1
102
RTVSPropertyOp19
 70
     1
102
RTVSPropertyOp20
 70
     1
102
RTVSPropertyOp21
 70
     1
102
RTVSPropertyOp22
 70
     1
102
RTVSPropertyOp23
 70
     1
102
RTVSPropertyOp24
 70
     1
102
RTVSPropertyOp25
 70
     1
102
RTVSPropertyOp26
 70
     1
102
RTVSPropertyOp27
 70
     1
102
RTVSPropertyOp28
 70
     1
102
RTVSPropertyOp29
 70
     1
102
RTVSPropertyOp30
 70
     1
102
RTVSPropertyOp31
 70
     1
102
RTVSPropertyOp32
 70
     1
102
RTVSPropertyOp33
 70
     1
102
RTVSPropertyOp34
 70
     1
102
RTVSPropertyOp35
 70
     1
102
RTVSPropertyOp36
 70
     1
102
RTVSPropertyOp37
 70
     1
102
RTVSPropertyOp38
 70
     1
102
RTVSPropertyOp39
 70
     1
102
RTVSPropertyOp40
 70
     1
102
RTVSPropertyOp41
 70
     1
102
RTVSPropertyOp42
 70
     1
102
RTVSPropertyOp43
 70
     1
102
RTVSPropertyOp44
 70
     1
102
RTVSPropertyOp45
 70
     1
102
RTVSPropertyOp46
 70
     1
102
RTVSPropertyOp47
 70
     1
102
RTVSPropertyOp48
 70
     1
102
RTVSPropertyOp49
 70
     1
102
RTVSPropertyOp50
 70
     1
102
RTVSPropertyOp51
 70
     0
102
RTVSPropertyOp52
 70
     0
102
RTVSPropertyOp53
 70
     1
102
RTVSPropertyOp54
 70
     1
102
RTVSPropertyOp55
 70
     1
102
RTVSPropertyOp56
 70
     1
102
RTVSPropertyOp57
 70
     1
102
RTVSPost2010Prop28
280
     0
102
RTVSPost2010PropOp28
 70
     1
102
RTVSPost2010Prop29
280
     1
102
RTVSPost2010PropOp29
 70
     1
102
RTVSPost2010Prop30
280
     1
102
RTVSPost2010PropOp30
 70
     1
102
RTVSPost2010Prop31
280
     0
102
RTVSPost2010PropOp31
 70
     1
102
RTVSPost2010Prop32
280
     0
102
RTVSPost2010PropOp32
 70
     1
102
RTVSPost2010Prop33
280
     0
102
RTVSPost2010PropOp33
 70
     1
102
RTVSPost2010Prop34
280
     0
102
RTVSPost2010PropOp34
 70
     1
102
RTVSPost2010Prop35
280
     0
102
RTVSPost2010PropOp35
 70
     1
102
RTVSPost2010Prop36
280
     0
102
RTVSPost2010PropOp36
 70
     1
102
RTVSPost2010Prop37
 90
       50
102
RTVSPost2010PropOp37
 70
     1
102
RTVSPost2010Prop38
140
0.0
102
RTVSPost2010PropOp38
 70
     1
102
RTVSPost2010Prop39
140
1.0
102
RTVSPost2010PropOp39
 70
     1
102
RTVSPost2010Prop40
 90
        0
102
RTVSPost2010PropOp40
 70
     1
102
RTVSPost2010Prop41ColorIndex
 90
       18
102
RTVSPost2010Prop41ColorRGB
 90
        0
102
RTVSPost2010PropOp41
 70
     1
102
RTVSPost2010Prop42
 90
       50
102
RTVSPost2010PropOp42
 70
     1
102
RTVSPost2010Prop43
 90
        3
102
RTVSPost2010PropOp43
 70
     1
102
RTVSPost2010Prop44ColorIndex
 90
        5
102
RTVSPost2010Prop44ColorRGB
 90
      255
102
RTVSPost2010PropOp44
 70
     1
102
RTVSPost2010Prop45
280
     0
102
RTVSPost2010PropOp45
 70
     1
102
RTVSPost2010Prop46
 90
       50
102
RTVSPost2010PropOp46
 70
     1
102
RTVSPost2010Prop47
 90
       50
102
RTVSPost2010PropOp47
 70
     1
102
RTVSPost2010Prop48
 90
       50
102
RTVSPost2010PropOp48
 70
     1
102
RTVSPost2010Prop49
280
     0
102
RTVSPost2010PropOp49
 70
     1
102
RTVSPost2010Prop50
 90
       50
102
RTVSPost2010PropOp50
 70
     1
102
RTVSPost2010Prop51ColorIndex
 90
      256
102
RTVSPost2010Prop51ColorRGB
 90
-16777216
102
RTVSPost2010PropOp51
 70
     0
102
RTVSPost2010Prop52
140
1.0
102
RTVSPost2010PropOp52
 70
     0
102
RTVSPost2010Prop53
 90
        2
102
RTVSPost2010PropOp53
 70
     1
102
RTVSPost2010Prop54
  1
strokes_ogs.tif
102
RTVSPost2010PropOp54
 70
     1
102
RTVSPost2010Prop55
280
     0
102
RTVSPost2010PropOp55
 70
     1
102
RTVSPost2010Prop56
140
1.0
102
RTVSPost2010PropOp56
 70
     1
102
RTVSPost2010Prop57
140
1.0
102
RTVSPost2010PropOp57
 70
     1
  0
XRECORD
  5
203
102
{ACAD_REACTORS
330
202
102
}
330
202
100
AcDbXrecord
280
     1
102
RTVSPropertyOp0
 70
     0
102
RTVSPropertyOp1
 70
     0
102
RTVSPropertyOp2
 70
     0
102
RTVSPropertyOp3
 70
     0
102
RTVSPropertyOp4
 70
     0
102
RTVSPropertyOp5
 70
     0
102
RTVSPropertyOp6
 70
     0
102
RTVSPropertyOp7
 70
     0
102
RTVSPropertyOp8
 70
     0
102
RTVSPropertyOp9
 70
     0
102
RTVSPropertyOp10
 70
     0
102
RTVSPropertyOp11
 70
     0
102
RTVSPropertyOp12
 70
     0
102
RTVSPropertyOp13
 70
     0
102
RTVSPropertyOp14
 70
     2
102
RTVSPropertyOp15
 70
     0
102
RTVSPropertyOp16
 70
     0
102
RTVSPropertyOp17
 70
     0
102
RTVSPropertyOp18
 70
     0
102
RTVSPropertyOp19
 70
     0
102
RTVSPropertyOp20
 70
     0
102
RTVSPropertyOp21
 70
     0
102
RTVSPropertyOp22
 70
     0
102
RTVSPropertyOp23
 70
     0
102
RTVSPropertyOp24
 70
     0
102
RTVSPropertyOp25
 70
     0
102
RTVSPropertyOp26
 70
     0
102
RTVSPropertyOp27
 70
     0
102
RTVSPropertyOp28
 70
     0
102
RTVSPropertyOp29
 70
     0
102
RTVSPropertyOp30
 70
     0
102
RTVSPropertyOp31
 70
     0
102
RTVSPropertyOp32
 70
     0
102
RTVSPropertyOp33
 70
     0
102
RTVSPropertyOp34
 70
     0
102
RTVSPropertyOp35
 70
     0
102
RTVSPropertyOp36
 70
     0
102
RTVSPropertyOp37
 70
     0
102
RTVSPropertyOp38
 70
     0
102
RTVSPropertyOp39
 70
     0
102
RTVSPropertyOp40
 70
     0
102
RTVSPropertyOp41
 70
     0
102
RTVSPropertyOp42
 70
     0
102
RTVSPropertyOp43
 70
     0
102
RTVSPropertyOp44
 70
     0
102
RTVSPropertyOp45
 70
     0
102
RTVSPropertyOp46
 70
     0
102
RTVSPropertyOp47
 70
     0
102
RTVSPropertyOp48
 70
     0
102
RTVSPropertyOp49
 70
     0
102
RTVSPropertyOp50
 70
     0
102
RTVSPropertyOp51
 70
     0
102
RTVSPropertyOp52
 70
     0
102
RTVSPropertyOp53
 70
     0
102
RTVSPropertyOp54
 70
     0
102
RTVSPropertyOp55
 70
     0
102
RTVSPropertyOp56
 70
     0
102
RTVSPropertyOp57
 70
     0
102
RTVSPost2010Prop28
280
     0
102
RTVSPost2010PropOp28
 70
     0
102
RTVSPost2010Prop29
280
     1
102
RTVSPost2010PropOp29
 70
     0
102
RTVSPost2010Prop30
280
     1
102
RTVSPost2010PropOp30
 70
     0
102
RTVSPost2010Prop31
280
     0
102
RTVSPost2010PropOp31
 70
     0
102
RTVSPost2010Prop32
280
     0
102
RTVSPost2010PropOp32
 70
     0
102
RTVSPost2010Prop33
280
     0
102
RTVSPost2010PropOp33
 70
     0
102
RTVSPost2010Prop34
280
     0
102
RTVSPost2010PropOp34
 70
     0
102
RTVSPost2010Prop35
280
     0
102
RTVSPost2010PropOp35
 70
     0
102
RTVSPost2010Prop36
280
     0
102
RTVSPost2010PropOp36
 70
     0
102
RTVSPost2010Prop37
 90
       50
102
RTVSPost2010PropOp37
 70
     0
102
RTVSPost2010Prop38
140
0.0
102
RTVSPost2010PropOp38
 70
     0
102
RTVSPost2010Prop39
140
1.0
102
RTVSPost2010PropOp39
 70
     0
102
RTVSPost2010Prop40
 90
        0
102
RTVSPost2010PropOp40
 70
     0
102
RTVSPost2010Prop41ColorIndex
 90
       18
102
RTVSPost2010Prop41ColorRGB
 90
        0
102
RTVSPost2010PropOp41
 70
     0
102
RTVSPost2010Prop42
 90
       50
102
RTVSPost2010PropOp42
 70
     0
102
RTVSPost2010Prop43
 90
        3
102
RTVSPost2010PropOp43
 70
     0
102
RTVSPost2010Prop44ColorIndex
 90
        5
102
RTVSPost2010Prop44ColorRGB
 90
      255
102
RTVSPost2010PropOp44
 70
     0
102
RTVSPost2010Prop45
280
     0
102
RTVSPost2010PropOp45
 70
     0
102
RTVSPost2010Prop46
 90
       50
102
RTVSPost2010PropOp46
 70
     0
102
RTVSPost2010Prop47
 90
       50
102
RTVSPost2010PropOp47
 70
     0
102
RTVSPost2010Prop48
 90
       50
102
RTVSPost2010PropOp48
 70
     0
102
RTVSPost2010Prop49
280
     0
102
RTVSPost2010PropOp49
 70
     0
102
RTVSPost2010Prop50
 90
       50
102
RTVSPost2010PropOp50
 70
     0
102
RTVSPost2010Prop51ColorIndex
 90
      256
102
RTVSPost2010Prop51ColorRGB
 90
-16777216
102
RTVSPost2010PropOp51
 70
     0
102
RTVSPost2010Prop52
140
1.0
102
RTVSPost2010PropOp52
 70
     0
102
RTVSPost2010Prop53
 90
        2
102
RTVSPost2010PropOp53
 70
     0
102
RTVSPost2010Prop54
  1
strokes_ogs.tif
102
RTVSPost2010PropOp54
 70
     0
102
RTVSPost2010Prop55
280
     0
102
RTVSPost2010PropOp55
 70
     0
102
RTVSPost2010Prop56
140
1.0
102
RTVSPost2010PropOp56
 70
     0
102
RTVSPost2010Prop57
140
1.0
102
RTVSPost2010PropOp57
 70
     0
  0
XRECORD
  5
1F1
102
{ACAD_REACTORS
330
1F0
102
}
330
1F0
100
AcDbXrecord
280
     1
102
RTVSPropertyOp0
 70
     1
102
RTVSPropertyOp1
 70
     1
102
RTVSPropertyOp2
 70
     1
102
RTVSPropertyOp3
 70
     1
102
RTVSPropertyOp4
 70
     1
102
RTVSPropertyOp5
 70
     1
102
RTVSPropertyOp6
 70
     1
102
RTVSPropertyOp7
 70
     1
102
RTVSPropertyOp8
 70
     1
102
RTVSPropertyOp9
 70
     1
102
RTVSPropertyOp10
 70
     1
102
RTVSPropertyOp11
 70
     1
102
RTVSPropertyOp12
 70
     1
102
RTVSPropertyOp13
 70
     1
102
RTVSPropertyOp14
 70
     1
102
RTVSPropertyOp15
 70
     1
102
RTVSPropertyOp16
 70
     1
102
RTVSPropertyOp17
 70
     1
102
RTVSPropertyOp18
 70
     1
102
RTVSPropertyOp19
 70
     1
102
RTVSPropertyOp20
 70
     1
102
RTVSPropertyOp21
 70
     1
102
RTVSPropertyOp22
 70
     1
102
RTVSPropertyOp23
 70
     1
102
RTVSPropertyOp24
 70
     1
102
RTVSPropertyOp25
 70
     1
102
RTVSPropertyOp26
 70
     1
102
RTVSPropertyOp27
 70
     1
102
RTVSPropertyOp28
 70
     1
102
RTVSPropertyOp29
 70
     1
102
RTVSPropertyOp30
 70
     1
102
RTVSPropertyOp31
 70
     1
102
RTVSPropertyOp32
 70
     1
102
RTVSPropertyOp33
 70
     1
102
RTVSPropertyOp34
 70
     1
102
RTVSPropertyOp35
 70
     1
102
RTVSPropertyOp36
 70
     1
102
RTVSPropertyOp37
 70
     1
102
RTVSPropertyOp38
 70
     1
102
RTVSPropertyOp39
 70
     1
102
RTVSPropertyOp40
 70
     1
102
RTVSPropertyOp41
 70
     1
102
RTVSPropertyOp42
 70
     1
102
RTVSPropertyOp43
 70
     1
102
RTVSPropertyOp44
 70
     1
102
RTVSPropertyOp45
 70
     1
102
RTVSPropertyOp46
 70
     1
102
RTVSPropertyOp47
 70
     1
102
RTVSPropertyOp48
 70
     1
102
RTVSPropertyOp49
 70
     1
102
RTVSPropertyOp50
 70
     1
102
RTVSPropertyOp51
 70
     0
102
RTVSPropertyOp52
 70
     0
102
RTVSPropertyOp53
 70
     1
102
RTVSPropertyOp54
 70
     1
102
RTVSPropertyOp55
 70
     1
102
RTVSPropertyOp56
 70
     1
102
RTVSPropertyOp57
 70
     1
102
RTVSPost2010Prop28
280
     0
102
RTVSPost2010PropOp28
 70
     1
102
RTVSPost2010Prop29
280
     1
102
RTVSPost2010PropOp29
 70
     1
102
RTVSPost2010Prop30
280
     1
102
RTVSPost2010PropOp30
 70
     1
102
RTVSPost2010Prop31
280
     0
102
RTVSPost2010PropOp31
 70
     1
102
RTVSPost2010Prop32
280
     0
102
RTVSPost2010PropOp32
 70
     1
102
RTVSPost2010Prop33
280
     0
102
RTVSPost2010PropOp33
 70
     1
102
RTVSPost2010Prop34
280
     0
102
RTVSPost2010PropOp34
 70
     1
102
RTVSPost2010Prop35
280
     0
102
RTVSPost2010PropOp35
 70
     1
102
RTVSPost2010Prop36
280
     0
102
RTVSPost2010PropOp36
 70
     1
102
RTVSPost2010Prop37
 90
       50
102
RTVSPost2010PropOp37
 70
     1
102
RTVSPost2010Prop38
140
0.0
102
RTVSPost2010PropOp38
 70
     1
102
RTVSPost2010Prop39
140
1.0
102
RTVSPost2010PropOp39
 70
     1
102
RTVSPost2010Prop40
 90
        0
102
RTVSPost2010PropOp40
 70
     1
102
RTVSPost2010Prop41ColorIndex
 90
       18
102
RTVSPost2010Prop41ColorRGB
 90
        0
102
RTVSPost2010PropOp41
 70
     1
102
RTVSPost2010Prop42
 90
       50
102
RTVSPost2010PropOp42
 70
     1
102
RTVSPost2010Prop43
 90
        3
102
RTVSPost2010PropOp43
 70
     1
102
RTVSPost2010Prop44ColorIndex
 90
        5
102
RTVSPost2010Prop44ColorRGB
 90
      255
102
RTVSPost2010PropOp44
 70
     1
102
RTVSPost2010Prop45
280
     0
102
RTVSPost2010PropOp45
 70
     1
102
RTVSPost2010Prop46
 90
       50
102
RTVSPost2010PropOp46
 70
     1
102
RTVSPost2010Prop47
 90
       50
102
RTVSPost2010PropOp47
 70
     1
102
RTVSPost2010Prop48
 90
       50
102
RTVSPost2010PropOp48
 70
     1
102
RTVSPost2010Prop49
280
     0
102
RTVSPost2010PropOp49
 70
     1
102
RTVSPost2010Prop50
 90
       50
102
RTVSPost2010PropOp50
 70
     1
102
RTVSPost2010Prop51ColorIndex
 90
      256
102
RTVSPost2010Prop51ColorRGB
 90
-16777216
102
RTVSPost2010PropOp51
 70
     0
102
RTVSPost2010Prop52
140
1.0
102
RTVSPost2010PropOp52
 70
     0
102
RTVSPost2010Prop53
 90
        2
102
RTVSPost2010PropOp53
 70
     1
102
RTVSPost2010Prop54
  1
strokes_ogs.tif
102
RTVSPost2010PropOp54
 70
     1
102
RTVSPost2010Prop55
280
     0
102
RTVSPost2010PropOp55
 70
     1
102
RTVSPost2010Prop56
140
1.0
102
RTVSPost2010PropOp56
 70
     1
102
RTVSPost2010Prop57
140
1.0
102
RTVSPost2010PropOp57
 70
     1
  0
XRECORD
  5
20F
102
{ACAD_REACTORS
330
20E
102
}
330
20E
100
AcDbXrecord
280
     1
102
RTVSPropertyOp0
 70
     1
102
RTVSPropertyOp1
 70
     1
102
RTVSPropertyOp2
 70
     1
102
RTVSPropertyOp3
 70
     1
102
RTVSPropertyOp4
 70
     1
102
RTVSPropertyOp5
 70
     1
102
RTVSPropertyOp6
 70
     1
102
RTVSPropertyOp7
 70
     1
102
RTVSPropertyOp8
 70
     1
102
RTVSPropertyOp9
 70
     1
102
RTVSPropertyOp10
 70
     1
102
RTVSPropertyOp11
 70
     1
102
RTVSPropertyOp12
 70
     1
102
RTVSPropertyOp13
 70
     1
102
RTVSPropertyOp14
 70
     1
102
RTVSPropertyOp15
 70
     1
102
RTVSPropertyOp16
 70
     1
102
RTVSPropertyOp17
 70
     1
102
RTVSPropertyOp18
 70
     1
102
RTVSPropertyOp19
 70
     1
102
RTVSPropertyOp20
 70
     1
102
RTVSPropertyOp21
 70
     1
102
RTVSPropertyOp22
 70
     1
102
RTVSPropertyOp23
 70
     1
102
RTVSPropertyOp24
 70
     1
102
RTVSPropertyOp25
 70
     1
102
RTVSPropertyOp26
 70
     1
102
RTVSPropertyOp27
 70
     1
102
RTVSPropertyOp28
 70
     1
102
RTVSPropertyOp29
 70
     1
102
RTVSPropertyOp30
 70
     1
102
RTVSPropertyOp31
 70
     1
102
RTVSPropertyOp32
 70
     1
102
RTVSPropertyOp33
 70
     1
102
RTVSPropertyOp34
 70
     1
102
RTVSPropertyOp35
 70
     1
102
RTVSPropertyOp36
 70
     1
102
RTVSPropertyOp37
 70
     1
102
RTVSPropertyOp38
 70
     1
102
RTVSPropertyOp39
 70
     1
102
RTVSPropertyOp40
 70
     1
102
RTVSPropertyOp41
 70
     1
102
RTVSPropertyOp42
 70
     1
102
RTVSPropertyOp43
 70
     1
102
RTVSPropertyOp44
 70
     1
102
RTVSPropertyOp45
 70
     1
102
RTVSPropertyOp46
 70
     1
102
RTVSPropertyOp47
 70
     1
102
RTVSPropertyOp48
 70
     1
102
RTVSPropertyOp49
 70
     1
102
RTVSPropertyOp50
 70
     1
102
RTVSPropertyOp51
 70
     0
102
RTVSPropertyOp52
 70
     0
102
RTVSPropertyOp53
 70
     1
102
RTVSPropertyOp54
 70
     1
102
RTVSPropertyOp55
 70
     1
102
RTVSPropertyOp56
 70
     1
102
RTVSPropertyOp57
 70
     1
102
RTVSPost2010Prop28
280
     0
102
RTVSPost2010PropOp28
 70
     1
102
RTVSPost2010Prop29
280
     1
102
RTVSPost2010PropOp29
 70
     1
102
RTVSPost2010Prop30
280
     1
102
RTVSPost2010PropOp30
 70
     1
102
RTVSPost2010Prop31
280
     0
102
RTVSPost2010PropOp31
 70
     1
102
RTVSPost2010Prop32
280
     0
102
RTVSPost2010PropOp32
 70
     1
102
RTVSPost2010Prop33
280
     0
102
RTVSPost2010PropOp33
 70
     1
102
RTVSPost2010Prop34
280
     0
102
RTVSPost2010PropOp34
 70
     1
102
RTVSPost2010Prop35
280
     0
102
RTVSPost2010PropOp35
 70
     1
102
RTVSPost2010Prop36
280
     0
102
RTVSPost2010PropOp36
 70
     1
102
RTVSPost2010Prop37
 90
       50
102
RTVSPost2010PropOp37
 70
     1
102
RTVSPost2010Prop38
140
0.0
102
RTVSPost2010PropOp38
 70
     1
102
RTVSPost2010Prop39
140
1.0
102
RTVSPost2010PropOp39
 70
     1
102
RTVSPost2010Prop40
 90
        0
102
RTVSPost2010PropOp40
 70
     1
102
RTVSPost2010Prop41ColorIndex
 90
       18
102
RTVSPost2010Prop41ColorRGB
 90
        0
102
RTVSPost2010PropOp41
 70
     1
102
RTVSPost2010Prop42
 90
       50
102
RTVSPost2010PropOp42
 70
     1
102
RTVSPost2010Prop43
 90
        3
102
RTVSPost2010PropOp43
 70
     1
102
RTVSPost2010Prop44ColorIndex
 90
        5
102
RTVSPost2010Prop44ColorRGB
 90
      255
102
RTVSPost2010PropOp44
 70
     1
102
RTVSPost2010Prop45
280
     0
102
RTVSPost2010PropOp45
 70
     1
102
RTVSPost2010Prop46
 90
       50
102
RTVSPost2010PropOp46
 70
     1
102
RTVSPost2010Prop47
 90
       50
102
RTVSPost2010PropOp47
 70
     1
102
RTVSPost2010Prop48
 90
       50
102
RTVSPost2010PropOp48
 70
     1
102
RTVSPost2010Prop49
280
     0
102
RTVSPost2010PropOp49
 70
     1
102
RTVSPost2010Prop50
 90
       50
102
RTVSPost2010PropOp50
 70
     1
102
RTVSPost2010Prop51ColorIndex
 90
      256
102
RTVSPost2010Prop51ColorRGB
 90
-16777216
102
RTVSPost2010PropOp51
 70
     0
102
RTVSPost2010Prop52
140
1.0
102
RTVSPost2010PropOp52
 70
     0
102
RTVSPost2010Prop53
 90
        2
102
RTVSPost2010PropOp53
 70
     1
102
RTVSPost2010Prop54
  1
strokes_ogs.tif
102
RTVSPost2010PropOp54
 70
     1
102
RTVSPost2010Prop55
280
     0
102
RTVSPost2010PropOp55
 70
     1
102
RTVSPost2010Prop56
140
1.0
102
RTVSPost2010PropOp56
 70
     1
102
RTVSPost2010Prop57
140
1.0
102
RTVSPost2010PropOp57
 70
     1
  0
XRECORD
  5
20D
102
{ACAD_REACTORS
330
20C
102
}
330
20C
100
AcDbXrecord
280
     1
102
RTVSPropertyOp0
 70
     1
102
RTVSPropertyOp1
 70
     1
102
RTVSPropertyOp2
 70
     1
102
RTVSPropertyOp3
 70
     1
102
RTVSPropertyOp4
 70
     1
102
RTVSPropertyOp5
 70
     1
102
RTVSPropertyOp6
 70
     1
102
RTVSPropertyOp7
 70
     1
102
RTVSPropertyOp8
 70
     1
102
RTVSPropertyOp9
 70
     1
102
RTVSPropertyOp10
 70
     1
102
RTVSPropertyOp11
 70
     1
102
RTVSPropertyOp12
 70
     1
102
RTVSPropertyOp13
 70
     1
102
RTVSPropertyOp14
 70
     1
102
RTVSPropertyOp15
 70
     1
102
RTVSPropertyOp16
 70
     1
102
RTVSPropertyOp17
 70
     1
102
RTVSPropertyOp18
 70
     1
102
RTVSPropertyOp19
 70
     1
102
RTVSPropertyOp20
 70
     1
102
RTVSPropertyOp21
 70
     1
102
RTVSPropertyOp22
 70
     1
102
RTVSPropertyOp23
 70
     1
102
RTVSPropertyOp24
 70
     1
102
RTVSPropertyOp25
 70
     1
102
RTVSPropertyOp26
 70
     1
102
RTVSPropertyOp27
 70
     1
102
RTVSPropertyOp28
 70
     1
102
RTVSPropertyOp29
 70
     1
102
RTVSPropertyOp30
 70
     1
102
RTVSPropertyOp31
 70
     1
102
RTVSPropertyOp32
 70
     1
102
RTVSPropertyOp33
 70
     1
102
RTVSPropertyOp34
 70
     1
102
RTVSPropertyOp35
 70
     1
102
RTVSPropertyOp36
 70
     1
102
RTVSPropertyOp37
 70
     1
102
RTVSPropertyOp38
 70
     1
102
RTVSPropertyOp39
 70
     1
102
RTVSPropertyOp40
 70
     1
102
RTVSPropertyOp41
 70
     1
102
RTVSPropertyOp42
 70
     1
102
RTVSPropertyOp43
 70
     1
102
RTVSPropertyOp44
 70
     1
102
RTVSPropertyOp45
 70
     1
102
RTVSPropertyOp46
 70
     1
102
RTVSPropertyOp47
 70
     1
102
RTVSPropertyOp48
 70
     1
102
RTVSPropertyOp49
 70
     1
102
RTVSPropertyOp50
 70
     1
102
RTVSPropertyOp51
 70
     0
102
RTVSPropertyOp52
 70
     0
102
RTVSPropertyOp53
 70
     1
102
RTVSPropertyOp54
 70
     1
102
RTVSPropertyOp55
 70
     1
102
RTVSPropertyOp56
 70
     1
102
RTVSPropertyOp57
 70
     1
102
RTVSPost2010Prop28
280
     0
102
RTVSPost2010PropOp28
 70
     1
102
RTVSPost2010Prop29
280
     1
102
RTVSPost2010PropOp29
 70
     1
102
RTVSPost2010Prop30
280
     1
102
RTVSPost2010PropOp30
 70
     1
102
RTVSPost2010Prop31
280
     0
102
RTVSPost2010PropOp31
 70
     1
102
RTVSPost2010Prop32
280
     0
102
RTVSPost2010PropOp32
 70
     1
102
RTVSPost2010Prop33
280
     0
102
RTVSPost2010PropOp33
 70
     1
102
RTVSPost2010Prop34
280
     0
102
RTVSPost2010PropOp34
 70
     1
102
RTVSPost2010Prop35
280
     0
102
RTVSPost2010PropOp35
 70
     1
102
RTVSPost2010Prop36
280
     0
102
RTVSPost2010PropOp36
 70
     1
102
RTVSPost2010Prop37
 90
       50
102
RTVSPost2010PropOp37
 70
     1
102
RTVSPost2010Prop38
140
0.0
102
RTVSPost2010PropOp38
 70
     1
102
RTVSPost2010Prop39
140
1.0
102
RTVSPost2010PropOp39
 70
     1
102
RTVSPost2010Prop40
 90
        0
102
RTVSPost2010PropOp40
 70
     1
102
RTVSPost2010Prop41ColorIndex
 90
       18
102
RTVSPost2010Prop41ColorRGB
 90
        0
102
RTVSPost2010PropOp41
 70
     1
102
RTVSPost2010Prop42
 90
       50
102
RTVSPost2010PropOp42
 70
     1
102
RTVSPost2010Prop43
 90
        3
102
RTVSPost2010PropOp43
 70
     1
102
RTVSPost2010Prop44ColorIndex
 90
        5
102
RTVSPost2010Prop44ColorRGB
 90
      255
102
RTVSPost2010PropOp44
 70
     1
102
RTVSPost2010Prop45
280
     0
102
RTVSPost2010PropOp45
 70
     1
102
RTVSPost2010Prop46
 90
       50
102
RTVSPost2010PropOp46
 70
     1
102
RTVSPost2010Prop47
 90
       50
102
RTVSPost2010PropOp47
 70
     1
102
RTVSPost2010Prop48
 90
       50
102
RTVSPost2010PropOp48
 70
     1
102
RTVSPost2010Prop49
280
     0
102
RTVSPost2010PropOp49
 70
     1
102
RTVSPost2010Prop50
 90
       50
102
RTVSPost2010PropOp50
 70
     1
102
RTVSPost2010Prop51ColorIndex
 90
      256
102
RTVSPost2010Prop51ColorRGB
 90
-16777216
102
RTVSPost2010PropOp51
 70
     0
102
RTVSPost2010Prop52
140
1.0
102
RTVSPost2010PropOp52
 70
     0
102
RTVSPost2010Prop53
 90
        2
102
RTVSPost2010PropOp53
 70
     1
102
RTVSPost2010Prop54
  1
strokes_ogs.tif
102
RTVSPost2010PropOp54
 70
     1
102
RTVSPost2010Prop55
280
     0
102
RTVSPost2010PropOp55
 70
     1
102
RTVSPost2010Prop56
140
1.0
102
RTVSPost2010PropOp56
 70
     1
102
RTVSPost2010Prop57
140
1.0
102
RTVSPost2010PropOp57
 70
     1
  0
XRECORD
  5
207
102
{ACAD_REACTORS
330
206
102
}
330
206
100
AcDbXrecord
280
     1
102
RTVSPropertyOp0
 70
     1
102
RTVSPropertyOp1
 70
     1
102
RTVSPropertyOp2
 70
     1
102
RTVSPropertyOp3
 70
     1
102
RTVSPropertyOp4
 70
     1
102
RTVSPropertyOp5
 70
     1
102
RTVSPropertyOp6
 70
     1
102
RTVSPropertyOp7
 70
     1
102
RTVSPropertyOp8
 70
     1
102
RTVSPropertyOp9
 70
     1
102
RTVSPropertyOp10
 70
     1
102
RTVSPropertyOp11
 70
     1
102
RTVSPropertyOp12
 70
     1
102
RTVSPropertyOp13
 70
     1
102
RTVSPropertyOp14
 70
     1
102
RTVSPropertyOp15
 70
     1
102
RTVSPropertyOp16
 70
     1
102
RTVSPropertyOp17
 70
     1
102
RTVSPropertyOp18
 70
     1
102
RTVSPropertyOp19
 70
     1
102
RTVSPropertyOp20
 70
     1
102
RTVSPropertyOp21
 70
     1
102
RTVSPropertyOp22
 70
     1
102
RTVSPropertyOp23
 70
     1
102
RTVSPropertyOp24
 70
     1
102
RTVSPropertyOp25
 70
     1
102
RTVSPropertyOp26
 70
     1
102
RTVSPropertyOp27
 70
     1
102
RTVSPropertyOp28
 70
     1
102
RTVSPropertyOp29
 70
     1
102
RTVSPropertyOp30
 70
     1
102
RTVSPropertyOp31
 70
     1
102
RTVSPropertyOp32
 70
     1
102
RTVSPropertyOp33
 70
     1
102
RTVSPropertyOp34
 70
     1
102
RTVSPropertyOp35
 70
     1
102
RTVSPropertyOp36
 70
     1
102
RTVSPropertyOp37
 70
     1
102
RTVSPropertyOp38
 70
     1
102
RTVSPropertyOp39
 70
     1
102
RTVSPropertyOp40
 70
     1
102
RTVSPropertyOp41
 70
     1
102
RTVSPropertyOp42
 70
     1
102
RTVSPropertyOp43
 70
     1
102
RTVSPropertyOp44
 70
     1
102
RTVSPropertyOp45
 70
     1
102
RTVSPropertyOp46
 70
     1
102
RTVSPropertyOp47
 70
     1
102
RTVSPropertyOp48
 70
     1
102
RTVSPropertyOp49
 70
     1
102
RTVSPropertyOp50
 70
     1
102
RTVSPropertyOp51
 70
     0
102
RTVSPropertyOp52
 70
     0
102
RTVSPropertyOp53
 70
     1
102
RTVSPropertyOp54
 70
     1
102
RTVSPropertyOp55
 70
     1
102
RTVSPropertyOp56
 70
     1
102
RTVSPropertyOp57
 70
     1
102
RTVSPost2010Prop28
280
     0
102
RTVSPost2010PropOp28
 70
     1
102
RTVSPost2010Prop29
280
     1
102
RTVSPost2010PropOp29
 70
     1
102
RTVSPost2010Prop30
280
     1
102
RTVSPost2010PropOp30
 70
     1
102
RTVSPost2010Prop31
280
     0
102
RTVSPost2010PropOp31
 70
     1
102
RTVSPost2010Prop32
280
     0
102
RTVSPost2010PropOp32
 70
     1
102
RTVSPost2010Prop33
280
     0
102
RTVSPost2010PropOp33
 70
     1
102
RTVSPost2010Prop34
280
     0
102
RTVSPost2010PropOp34
 70
     1
102
RTVSPost2010Prop35
280
     0
102
RTVSPost2010PropOp35
 70
     1
102
RTVSPost2010Prop36
280
     0
102
RTVSPost2010PropOp36
 70
     1
102
RTVSPost2010Prop37
 90
       50
102
RTVSPost2010PropOp37
 70
     1
102
RTVSPost2010Prop38
140
0.0
102
RTVSPost2010PropOp38
 70
     1
102
RTVSPost2010Prop39
140
1.0
102
RTVSPost2010PropOp39
 70
     1
102
RTVSPost2010Prop40
 90
        0
102
RTVSPost2010PropOp40
 70
     1
102
RTVSPost2010Prop41ColorIndex
 90
       18
102
RTVSPost2010Prop41ColorRGB
 90
        0
102
RTVSPost2010PropOp41
 70
     1
102
RTVSPost2010Prop42
 90
       50
102
RTVSPost2010PropOp42
 70
     1
102
RTVSPost2010Prop43
 90
        3
102
RTVSPost2010PropOp43
 70
     1
102
RTVSPost2010Prop44ColorIndex
 90
        5
102
RTVSPost2010Prop44ColorRGB
 90
      255
102
RTVSPost2010PropOp44
 70
     1
102
RTVSPost2010Prop45
280
     0
102
RTVSPost2010PropOp45
 70
     1
102
RTVSPost2010Prop46
 90
       50
102
RTVSPost2010PropOp46
 70
     1
102
RTVSPost2010Prop47
 90
       50
102
RTVSPost2010PropOp47
 70
     1
102
RTVSPost2010Prop48
 90
       50
102
RTVSPost2010PropOp48
 70
     1
102
RTVSPost2010Prop49
280
     0
102
RTVSPost2010PropOp49
 70
     1
102
RTVSPost2010Prop50
 90
       50
102
RTVSPost2010PropOp50
 70
     1
102
RTVSPost2010Prop51ColorIndex
 90
      256
102
RTVSPost2010Prop51ColorRGB
 90
-16777216
102
RTVSPost2010PropOp51
 70
     0
102
RTVSPost2010Prop52
140
1.0
102
RTVSPost2010PropOp52
 70
     0
102
RTVSPost2010Prop53
 90
        2
102
RTVSPost2010PropOp53
 70
     1
102
RTVSPost2010Prop54
  1
strokes_ogs.tif
102
RTVSPost2010PropOp54
 70
     1
102
RTVSPost2010Prop55
280
     0
102
RTVSPost2010PropOp55
 70
     1
102
RTVSPost2010Prop56
140
1.0
102
RTVSPost2010PropOp56
 70
     1
102
RTVSPost2010Prop57
140
1.0
102
RTVSPost2010PropOp57
 70
     1
  0
XRECORD
  5
209
102
{ACAD_REACTORS
330
208
102
}
330
208
100
AcDbXrecord
280
     1
102
RTVSPropertyOp0
 70
     1
102
RTVSPropertyOp1
 70
     1
102
RTVSPropertyOp2
 70
     1
102
RTVSPropertyOp3
 70
     1
102
RTVSPropertyOp4
 70
     1
102
RTVSPropertyOp5
 70
     1
102
RTVSPropertyOp6
 70
     1
102
RTVSPropertyOp7
 70
     1
102
RTVSPropertyOp8
 70
     1
102
RTVSPropertyOp9
 70
     1
102
RTVSPropertyOp10
 70
     1
102
RTVSPropertyOp11
 70
     1
102
RTVSPropertyOp12
 70
     1
102
RTVSPropertyOp13
 70
     1
102
RTVSPropertyOp14
 70
     1
102
RTVSPropertyOp15
 70
     1
102
RTVSPropertyOp16
 70
     1
102
RTVSPropertyOp17
 70
     1
102
RTVSPropertyOp18
 70
     1
102
RTVSPropertyOp19
 70
     1
102
RTVSPropertyOp20
 70
     1
102
RTVSPropertyOp21
 70
     1
102
RTVSPropertyOp22
 70
     1
102
RTVSPropertyOp23
 70
     1
102
RTVSPropertyOp24
 70
     1
102
RTVSPropertyOp25
 70
     1
102
RTVSPropertyOp26
 70
     1
102
RTVSPropertyOp27
 70
     1
102
RTVSPropertyOp28
 70
     1
102
RTVSPropertyOp29
 70
     1
102
RTVSPropertyOp30
 70
     1
102
RTVSPropertyOp31
 70
     1
102
RTVSPropertyOp32
 70
     1
102
RTVSPropertyOp33
 70
     1
102
RTVSPropertyOp34
 70
     1
102
RTVSPropertyOp35
 70
     1
102
RTVSPropertyOp36
 70
     1
102
RTVSPropertyOp37
 70
     1
102
RTVSPropertyOp38
 70
     1
102
RTVSPropertyOp39
 70
     1
102
RTVSPropertyOp40
 70
     1
102
RTVSPropertyOp41
 70
     1
102
RTVSPropertyOp42
 70
     1
102
RTVSPropertyOp43
 70
     1
102
RTVSPropertyOp44
 70
     1
102
RTVSPropertyOp45
 70
     1
102
RTVSPropertyOp46
 70
     1
102
RTVSPropertyOp47
 70
     1
102
RTVSPropertyOp48
 70
     1
102
RTVSPropertyOp49
 70
     1
102
RTVSPropertyOp50
 70
     1
102
RTVSPropertyOp51
 70
     0
102
RTVSPropertyOp52
 70
     0
102
RTVSPropertyOp53
 70
     1
102
RTVSPropertyOp54
 70
     1
102
RTVSPropertyOp55
 70
     1
102
RTVSPropertyOp56
 70
     1
102
RTVSPropertyOp57
 70
     1
102
RTVSPost2010Prop28
280
     0
102
RTVSPost2010PropOp28
 70
     1
102
RTVSPost2010Prop29
280
     1
102
RTVSPost2010PropOp29
 70
     1
102
RTVSPost2010Prop30
280
     1
102
RTVSPost2010PropOp30
 70
     1
102
RTVSPost2010Prop31
280
     0
102
RTVSPost2010PropOp31
 70
     1
102
RTVSPost2010Prop32
280
     0
102
RTVSPost2010PropOp32
 70
     1
102
RTVSPost2010Prop33
280
     0
102
RTVSPost2010PropOp33
 70
     1
102
RTVSPost2010Prop34
280
     0
102
RTVSPost2010PropOp34
 70
     1
102
RTVSPost2010Prop35
280
     0
102
RTVSPost2010PropOp35
 70
     1
102
RTVSPost2010Prop36
280
     0
102
RTVSPost2010PropOp36
 70
     1
102
RTVSPost2010Prop37
 90
       50
102
RTVSPost2010PropOp37
 70
     1
102
RTVSPost2010Prop38
140
0.0
102
RTVSPost2010PropOp38
 70
     1
102
RTVSPost2010Prop39
140
1.0
102
RTVSPost2010PropOp39
 70
     1
102
RTVSPost2010Prop40
 90
        0
102
RTVSPost2010PropOp40
 70
     1
102
RTVSPost2010Prop41ColorIndex
 90
       18
102
RTVSPost2010Prop41ColorRGB
 90
        0
102
RTVSPost2010PropOp41
 70
     1
102
RTVSPost2010Prop42
 90
       50
102
RTVSPost2010PropOp42
 70
     1
102
RTVSPost2010Prop43
 90
        3
102
RTVSPost2010PropOp43
 70
     1
102
RTVSPost2010Prop44ColorIndex
 90
        5
102
RTVSPost2010Prop44ColorRGB
 90
      255
102
RTVSPost2010PropOp44
 70
     1
102
RTVSPost2010Prop45
280
     0
102
RTVSPost2010PropOp45
 70
     1
102
RTVSPost2010Prop46
 90
       50
102
RTVSPost2010PropOp46
 70
     1
102
RTVSPost2010Prop47
 90
       50
102
RTVSPost2010PropOp47
 70
     1
102
RTVSPost2010Prop48
 90
       50
102
RTVSPost2010PropOp48
 70
     1
102
RTVSPost2010Prop49
280
     0
102
RTVSPost2010PropOp49
 70
     1
102
RTVSPost2010Prop50
 90
       50
102
RTVSPost2010PropOp50
 70
     1
102
RTVSPost2010Prop51ColorIndex
 90
      256
102
RTVSPost2010Prop51ColorRGB
 90
-16777216
102
RTVSPost2010PropOp51
 70
     0
102
RTVSPost2010Prop52
140
1.0
102
RTVSPost2010PropOp52
 70
     0
102
RTVSPost2010Prop53
 90
        2
102
RTVSPost2010PropOp53
 70
     1
102
RTVSPost2010Prop54
  1
strokes_ogs.tif
102
RTVSPost2010PropOp54
 70
     1
102
RTVSPost2010Prop55
280
     0
102
RTVSPost2010PropOp55
 70
     1
102
RTVSPost2010Prop56
140
1.0
102
RTVSPost2010PropOp56
 70
     1
102
RTVSPost2010Prop57
140
1.0
102
RTVSPost2010PropOp57
 70
     1
  0
XRECORD
  5
1F9
102
{ACAD_REACTORS
330
1F8
102
}
330
1F8
100
AcDbXrecord
280
     1
102
RTVSPropertyOp0
 70
     1
102
RTVSPropertyOp1
 70
     1
102
RTVSPropertyOp2
 70
     1
102
RTVSPropertyOp3
 70
     1
102
RTVSPropertyOp4
 70
     1
102
RTVSPropertyOp5
 70
     1
102
RTVSPropertyOp6
 70
     1
102
RTVSPropertyOp7
 70
     1
102
RTVSPropertyOp8
 70
     1
102
RTVSPropertyOp9
 70
     1
102
RTVSPropertyOp10
 70
     1
102
RTVSPropertyOp11
 70
     1
102
RTVSPropertyOp12
 70
     1
102
RTVSPropertyOp13
 70
     1
102
RTVSPropertyOp14
 70
     1
102
RTVSPropertyOp15
 70
     1
102
RTVSPropertyOp16
 70
     1
102
RTVSPropertyOp17
 70
     1
102
RTVSPropertyOp18
 70
     1
102
RTVSPropertyOp19
 70
     1
102
RTVSPropertyOp20
 70
     1
102
RTVSPropertyOp21
 70
     1
102
RTVSPropertyOp22
 70
     1
102
RTVSPropertyOp23
 70
     1
102
RTVSPropertyOp24
 70
     1
102
RTVSPropertyOp25
 70
     1
102
RTVSPropertyOp26
 70
     1
102
RTVSPropertyOp27
 70
     1
102
RTVSPropertyOp28
 70
     1
102
RTVSPropertyOp29
 70
     1
102
RTVSPropertyOp30
 70
     1
102
RTVSPropertyOp31
 70
     1
102
RTVSPropertyOp32
 70
     1
102
RTVSPropertyOp33
 70
     1
102
RTVSPropertyOp34
 70
     1
102
RTVSPropertyOp35
 70
     1
102
RTVSPropertyOp36
 70
     1
102
RTVSPropertyOp37
 70
     1
102
RTVSPropertyOp38
 70
     1
102
RTVSPropertyOp39
 70
     1
102
RTVSPropertyOp40
 70
     1
102
RTVSPropertyOp41
 70
     1
102
RTVSPropertyOp42
 70
     1
102
RTVSPropertyOp43
 70
     1
102
RTVSPropertyOp44
 70
     1
102
RTVSPropertyOp45
 70
     1
102
RTVSPropertyOp46
 70
     1
102
RTVSPropertyOp47
 70
     1
102
RTVSPropertyOp48
 70
     1
102
RTVSPropertyOp49
 70
     1
102
RTVSPropertyOp50
 70
     1
102
RTVSPropertyOp51
 70
     0
102
RTVSPropertyOp52
 70
     0
102
RTVSPropertyOp53
 70
     1
102
RTVSPropertyOp54
 70
     1
102
RTVSPropertyOp55
 70
     1
102
RTVSPropertyOp56
 70
     1
102
RTVSPropertyOp57
 70
     1
102
RTVSPost2010Prop28
280
     0
102
RTVSPost2010PropOp28
 70
     1
102
RTVSPost2010Prop29
280
     1
102
RTVSPost2010PropOp29
 70
     1
102
RTVSPost2010Prop30
280
     1
102
RTVSPost2010PropOp30
 70
     1
102
RTVSPost2010Prop31
280
     0
102
RTVSPost2010PropOp31
 70
     1
102
RTVSPost2010Prop32
280
     0
102
RTVSPost2010PropOp32
 70
     1
102
RTVSPost2010Prop33
280
     0
102
RTVSPost2010PropOp33
 70
     1
102
RTVSPost2010Prop34
280
     0
102
RTVSPost2010PropOp34
 70
     1
102
RTVSPost2010Prop35
280
     0
102
RTVSPost2010PropOp35
 70
     1
102
RTVSPost2010Prop36
280
     0
102
RTVSPost2010PropOp36
 70
     1
102
RTVSPost2010Prop37
 90
       50
102
RTVSPost2010PropOp37
 70
     1
102
RTVSPost2010Prop38
140
0.0
102
RTVSPost2010PropOp38
 70
     1
102
RTVSPost2010Prop39
140
1.0
102
RTVSPost2010PropOp39
 70
     1
102
RTVSPost2010Prop40
 90
        0
102
RTVSPost2010PropOp40
 70
     1
102
RTVSPost2010Prop41ColorIndex
 90
       18
102
RTVSPost2010Prop41ColorRGB
 90
        0
102
RTVSPost2010PropOp41
 70
     1
102
RTVSPost2010Prop42
 90
       50
102
RTVSPost2010PropOp42
 70
     1
102
RTVSPost2010Prop43
 90
        3
102
RTVSPost2010PropOp43
 70
     1
102
RTVSPost2010Prop44ColorIndex
 90
        5
102
RTVSPost2010Prop44ColorRGB
 90
      255
102
RTVSPost2010PropOp44
 70
     1
102
RTVSPost2010Prop45
280
     0
102
RTVSPost2010PropOp45
 70
     1
102
RTVSPost2010Prop46
 90
       50
102
RTVSPost2010PropOp46
 70
     1
102
RTVSPost2010Prop47
 90
       50
102
RTVSPost2010PropOp47
 70
     1
102
RTVSPost2010Prop48
 90
       50
102
RTVSPost2010PropOp48
 70
     1
102
RTVSPost2010Prop49
280
     0
102
RTVSPost2010PropOp49
 70
     1
102
RTVSPost2010Prop50
 90
       50
102
RTVSPost2010PropOp50
 70
     1
102
RTVSPost2010Prop51ColorIndex
 90
      256
102
RTVSPost2010Prop51ColorRGB
 90
-16777216
102
RTVSPost2010PropOp51
 70
     0
102
RTVSPost2010Prop52
140
1.0
102
RTVSPost2010PropOp52
 70
     0
102
RTVSPost2010Prop53
 90
        2
102
RTVSPost2010PropOp53
 70
     1
102
RTVSPost2010Prop54
  1
strokes_ogs.tif
102
RTVSPost2010PropOp54
 70
     1
102
RTVSPost2010Prop55
280
     0
102
RTVSPost2010PropOp55
 70
     1
102
RTVSPost2010Prop56
140
1.0
102
RTVSPost2010PropOp56
 70
     1
102
RTVSPost2010Prop57
140
1.0
102
RTVSPost2010PropOp57
 70
     1
  0
XRECORD
  5
1EB
102
{ACAD_REACTORS
330
1EA
102
}
330
1EA
100
AcDbXrecord
280
     1
102
RTVSPropertyOp0
 70
     1
102
RTVSPropertyOp1
 70
     1
102
RTVSPropertyOp2
 70
     1
102
RTVSPropertyOp3
 70
     1
102
RTVSPropertyOp4
 70
     1
102
RTVSPropertyOp5
 70
     1
102
RTVSPropertyOp6
 70
     1
102
RTVSPropertyOp7
 70
     1
102
RTVSPropertyOp8
 70
     1
102
RTVSPropertyOp9
 70
     1
102
RTVSPropertyOp10
 70
     1
102
RTVSPropertyOp11
 70
     1
102
RTVSPropertyOp12
 70
     1
102
RTVSPropertyOp13
 70
     1
102
RTVSPropertyOp14
 70
     1
102
RTVSPropertyOp15
 70
     1
102
RTVSPropertyOp16
 70
     1
102
RTVSPropertyOp17
 70
     1
102
RTVSPropertyOp18
 70
     1
102
RTVSPropertyOp19
 70
     1
102
RTVSPropertyOp20
 70
     1
102
RTVSPropertyOp21
 70
     1
102
RTVSPropertyOp22
 70
     1
102
RTVSPropertyOp23
 70
     1
102
RTVSPropertyOp24
 70
     1
102
RTVSPropertyOp25
 70
     1
102
RTVSPropertyOp26
 70
     1
102
RTVSPropertyOp27
 70
     1
102
RTVSPropertyOp28
 70
     1
102
RTVSPropertyOp29
 70
     1
102
RTVSPropertyOp30
 70
     1
102
RTVSPropertyOp31
 70
     1
102
RTVSPropertyOp32
 70
     1
102
RTVSPropertyOp33
 70
     1
102
RTVSPropertyOp34
 70
     1
102
RTVSPropertyOp35
 70
     1
102
RTVSPropertyOp36
 70
     1
102
RTVSPropertyOp37
 70
     1
102
RTVSPropertyOp38
 70
     1
102
RTVSPropertyOp39
 70
     1
102
RTVSPropertyOp40
 70
     1
102
RTVSPropertyOp41
 70
     1
102
RTVSPropertyOp42
 70
     1
102
RTVSPropertyOp43
 70
     1
102
RTVSPropertyOp44
 70
     1
102
RTVSPropertyOp45
 70
     1
102
RTVSPropertyOp46
 70
     1
102
RTVSPropertyOp47
 70
     1
102
RTVSPropertyOp48
 70
     1
102
RTVSPropertyOp49
 70
     1
102
RTVSPropertyOp50
 70
     1
102
RTVSPropertyOp51
 70
     0
102
RTVSPropertyOp52
 70
     0
102
RTVSPropertyOp53
 70
     1
102
RTVSPropertyOp54
 70
     1
102
RTVSPropertyOp55
 70
     1
102
RTVSPropertyOp56
 70
     1
102
RTVSPropertyOp57
 70
     1
102
RTVSPost2010Prop28
280
     0
102
RTVSPost2010PropOp28
 70
     1
102
RTVSPost2010Prop29
280
     1
102
RTVSPost2010PropOp29
 70
     1
102
RTVSPost2010Prop30
280
     1
102
RTVSPost2010PropOp30
 70
     1
102
RTVSPost2010Prop31
280
     0
102
RTVSPost2010PropOp31
 70
     1
102
RTVSPost2010Prop32
280
     0
102
RTVSPost2010PropOp32
 70
     1
102
RTVSPost2010Prop33
280
     0
102
RTVSPost2010PropOp33
 70
     1
102
RTVSPost2010Prop34
280
     0
102
RTVSPost2010PropOp34
 70
     1
102
RTVSPost2010Prop35
280
     0
102
RTVSPost2010PropOp35
 70
     1
102
RTVSPost2010Prop36
280
     0
102
RTVSPost2010PropOp36
 70
     1
102
RTVSPost2010Prop37
 90
       50
102
RTVSPost2010PropOp37
 70
     1
102
RTVSPost2010Prop38
140
0.0
102
RTVSPost2010PropOp38
 70
     1
102
RTVSPost2010Prop39
140
1.0
102
RTVSPost2010PropOp39
 70
     1
102
RTVSPost2010Prop40
 90
        0
102
RTVSPost2010PropOp40
 70
     1
102
RTVSPost2010Prop41ColorIndex
 90
       18
102
RTVSPost2010Prop41ColorRGB
 90
        0
102
RTVSPost2010PropOp41
 70
     1
102
RTVSPost2010Prop42
 90
       50
102
RTVSPost2010PropOp42
 70
     1
102
RTVSPost2010Prop43
 90
        3
102
RTVSPost2010PropOp43
 70
     1
102
RTVSPost2010Prop44ColorIndex
 90
        5
102
RTVSPost2010Prop44ColorRGB
 90
      255
102
RTVSPost2010PropOp44
 70
     1
102
RTVSPost2010Prop45
280
     0
102
RTVSPost2010PropOp45
 70
     1
102
RTVSPost2010Prop46
 90
       50
102
RTVSPost2010PropOp46
 70
     1
102
RTVSPost2010Prop47
 90
       50
102
RTVSPost2010PropOp47
 70
     1
102
RTVSPost2010Prop48
 90
       50
102
RTVSPost2010PropOp48
 70
     1
102
RTVSPost2010Prop49
280
     0
102
RTVSPost2010PropOp49
 70
     1
102
RTVSPost2010Prop50
 90
       50
102
RTVSPost2010PropOp50
 70
     1
102
RTVSPost2010Prop51ColorIndex
 90
      256
102
RTVSPost2010Prop51ColorRGB
 90
-16777216
102
RTVSPost2010PropOp51
 70
     0
102
RTVSPost2010Prop52
140
1.0
102
RTVSPost2010PropOp52
 70
     0
102
RTVSPost2010Prop53
 90
        2
102
RTVSPost2010PropOp53
 70
     1
102
RTVSPost2010Prop54
  1
strokes_ogs.tif
102
RTVSPost2010PropOp54
 70
     1
102
RTVSPost2010Prop55
280
     0
102
RTVSPost2010PropOp55
 70
     1
102
RTVSPost2010Prop56
140
1.0
102
RTVSPost2010PropOp56
 70
     1
102
RTVSPost2010Prop57
140
1.0
102
RTVSPost2010PropOp57
 70
     1
  0
XRECORD
  5
20B
102
{ACAD_REACTORS
330
20A
102
}
330
20A
100
AcDbXrecord
280
     1
102
RTVSPropertyOp0
 70
     1
102
RTVSPropertyOp1
 70
     1
102
RTVSPropertyOp2
 70
     1
102
RTVSPropertyOp3
 70
     1
102
RTVSPropertyOp4
 70
     1
102
RTVSPropertyOp5
 70
     1
102
RTVSPropertyOp6
 70
     1
102
RTVSPropertyOp7
 70
     1
102
RTVSPropertyOp8
 70
     1
102
RTVSPropertyOp9
 70
     1
102
RTVSPropertyOp10
 70
     1
102
RTVSPropertyOp11
 70
     1
102
RTVSPropertyOp12
 70
     1
102
RTVSPropertyOp13
 70
     1
102
RTVSPropertyOp14
 70
     1
102
RTVSPropertyOp15
 70
     1
102
RTVSPropertyOp16
 70
     1
102
RTVSPropertyOp17
 70
     1
102
RTVSPropertyOp18
 70
     1
102
RTVSPropertyOp19
 70
     1
102
RTVSPropertyOp20
 70
     1
102
RTVSPropertyOp21
 70
     1
102
RTVSPropertyOp22
 70
     1
102
RTVSPropertyOp23
 70
     1
102
RTVSPropertyOp24
 70
     1
102
RTVSPropertyOp25
 70
     1
102
RTVSPropertyOp26
 70
     1
102
RTVSPropertyOp27
 70
     1
102
RTVSPropertyOp28
 70
     1
102
RTVSPropertyOp29
 70
     1
102
RTVSPropertyOp30
 70
     1
102
RTVSPropertyOp31
 70
     1
102
RTVSPropertyOp32
 70
     1
102
RTVSPropertyOp33
 70
     1
102
RTVSPropertyOp34
 70
     1
102
RTVSPropertyOp35
 70
     1
102
RTVSPropertyOp36
 70
     1
102
RTVSPropertyOp37
 70
     1
102
RTVSPropertyOp38
 70
     1
102
RTVSPropertyOp39
 70
     1
102
RTVSPropertyOp40
 70
     1
102
RTVSPropertyOp41
 70
     1
102
RTVSPropertyOp42
 70
     1
102
RTVSPropertyOp43
 70
     1
102
RTVSPropertyOp44
 70
     1
102
RTVSPropertyOp45
 70
     1
102
RTVSPropertyOp46
 70
     1
102
RTVSPropertyOp47
 70
     1
102
RTVSPropertyOp48
 70
     1
102
RTVSPropertyOp49
 70
     1
102
RTVSPropertyOp50
 70
     1
102
RTVSPropertyOp51
 70
     0
102
RTVSPropertyOp52
 70
     0
102
RTVSPropertyOp53
 70
     1
102
RTVSPropertyOp54
 70
     1
102
RTVSPropertyOp55
 70
     1
102
RTVSPropertyOp56
 70
     1
102
RTVSPropertyOp57
 70
     1
102
RTVSPost2010Prop28
280
     0
102
RTVSPost2010PropOp28
 70
     1
102
RTVSPost2010Prop29
280
     1
102
RTVSPost2010PropOp29
 70
     1
102
RTVSPost2010Prop30
280
     1
102
RTVSPost2010PropOp30
 70
     1
102
RTVSPost2010Prop31
280
     0
102
RTVSPost2010PropOp31
 70
     1
102
RTVSPost2010Prop32
280
     0
102
RTVSPost2010PropOp32
 70
     1
102
RTVSPost2010Prop33
280
     0
102
RTVSPost2010PropOp33
 70
     1
102
RTVSPost2010Prop34
280
     0
102
RTVSPost2010PropOp34
 70
     1
102
RTVSPost2010Prop35
280
     0
102
RTVSPost2010PropOp35
 70
     1
102
RTVSPost2010Prop36
280
     0
102
RTVSPost2010PropOp36
 70
     1
102
RTVSPost2010Prop37
 90
       50
102
RTVSPost2010PropOp37
 70
     1
102
RTVSPost2010Prop38
140
0.0
102
RTVSPost2010PropOp38
 70
     1
102
RTVSPost2010Prop39
140
1.0
102
RTVSPost2010PropOp39
 70
     1
102
RTVSPost2010Prop40
 90
        0
102
RTVSPost2010PropOp40
 70
     1
102
RTVSPost2010Prop41ColorIndex
 90
       18
102
RTVSPost2010Prop41ColorRGB
 90
        0
102
RTVSPost2010PropOp41
 70
     1
102
RTVSPost2010Prop42
 90
       50
102
RTVSPost2010PropOp42
 70
     1
102
RTVSPost2010Prop43
 90
        3
102
RTVSPost2010PropOp43
 70
     1
102
RTVSPost2010Prop44ColorIndex
 90
        5
102
RTVSPost2010Prop44ColorRGB
 90
      255
102
RTVSPost2010PropOp44
 70
     1
102
RTVSPost2010Prop45
280
     0
102
RTVSPost2010PropOp45
 70
     1
102
RTVSPost2010Prop46
 90
       50
102
RTVSPost2010PropOp46
 70
     1
102
RTVSPost2010Prop47
 90
       50
102
RTVSPost2010PropOp47
 70
     1
102
RTVSPost2010Prop48
 90
       50
102
RTVSPost2010PropOp48
 70
     1
102
RTVSPost2010Prop49
280
     0
102
RTVSPost2010PropOp49
 70
     1
102
RTVSPost2010Prop50
 90
       50
102
RTVSPost2010PropOp50
 70
     1
102
RTVSPost2010Prop51ColorIndex
 90
      256
102
RTVSPost2010Prop51ColorRGB
 90
-16777216
102
RTVSPost2010PropOp51
 70
     0
102
RTVSPost2010Prop52
140
1.0
102
RTVSPost2010PropOp52
 70
     0
102
RTVSPost2010Prop53
 90
        2
102
RTVSPost2010PropOp53
 70
     1
102
RTVSPost2010Prop54
  1
strokes_ogs.tif
102
RTVSPost2010PropOp54
 70
     1
102
RTVSPost2010Prop55
280
     0
102
RTVSPost2010PropOp55
 70
     1
102
RTVSPost2010Prop56
140
1.0
102
RTVSPost2010PropOp56
 70
     1
102
RTVSPost2010Prop57
140
1.0
102
RTVSPost2010PropOp57
 70
     1
  0
ENDSEC
  0
EOF
